  0
SECTION
  2
HEADER
  9
$ACADVER
  1
AC1015
  9
$ACADMAINTVER
 70
     6
  9
$DWGCODEPAGE
  3
ANSI_932
  9
$INSBASE
 10
0.0
 20
0.0
 30
0.0
  9
$EXTMIN
 10
4.000015
 20
-24.0
 30
0.0
  9
$EXTMAX
 10
301.000005
 20
205.500002
 30
0.0
  9
$LIMMIN
 10
4.00002
 20
-4.500001
  9
$LIMMAX
 10
301.000005
 20
205.5
  9
$ORTHOMODE
 70
     0
  9
$REGENMODE
 70
     1
  9
$FILLMODE
 70
     1
  9
$QTEXTMODE
 70
     0
  9
$MIRRTEXT
 70
     1
  9
$LTSCALE
 40
1.0
  9
$ATTMODE
 70
     1
  9
$TEXTSIZE
 40
3.2
  9
$TRACEWID
 40
0.05
  9
$TEXTSTYLE
  7
MX_NOTE_STANDARD
  9
$CLAYER
  8
0
  9
$CELTYPE
  6
CONTINUOUS
  9
$CECOLOR
 62
   256
  9
$CELTSCALE
 40
1.0
  9
$DISPSILH
 70
     0
  9
$DIMSCALE
 40
1.0
  9
$DIMASZ
 40
2.5
  9
$DIMEXO
 40
0.0
  9
$DIMDLI
 40
3.75
  9
$DIMRND
 40
0.0
  9
$DIMDLE
 40
0.0
  9
$DIMEXE
 40
1.52
  9
$DIMTP
 40
0.0
  9
$DIMTM
 40
0.0
  9
$DIMTXT
 40
3.2
  9
$DIMCEN
 40
2.5
  9
$DIMTSZ
 40
0.0
  9
$DIMTOL
 70
     0
  9
$DIMLIM
 70
     0
  9
$DIMTIH
 70
     0
  9
$DIMTOH
 70
     0
  9
$DIMSE1
 70
     0
  9
$DIMSE2
 70
     0
  9
$DIMTAD
 70
     1
  9
$DIMZIN
 70
     8
  9
$DIMBLK
  1

  9
$DIMASO
 70
     1
  9
$DIMSHO
 70
     1
  9
$DIMPOST
  1

  9
$DIMAPOST
  1

  9
$DIMALT
 70
     0
  9
$DIMALTD
 70
     4
  9
$DIMALTF
 40
0.03937
  9
$DIMLFAC
 40
1.0
  9
$DIMTOFL
 70
     1
  9
$DIMTVP
 40
0.0
  9
$DIMTIX
 70
     0
  9
$DIMSOXD
 70
     0
  9
$DIMSAH
 70
     1
  9
$DIMBLK1
  1
_OPEN30
  9
$DIMBLK2
  1
_OPEN30
  9
$DIMSTYLE
  2
MXDIMSTYLE
  9
$DIMCLRD
 70
     0
  9
$DIMCLRE
 70
     0
  9
$DIMCLRT
 70
     0
  9
$DIMTFAC
 40
1.0
  9
$DIMGAP
 40
1.0
  9
$DIMJUST
 70
     0
  9
$DIMSD1
 70
     0
  9
$DIMSD2
 70
     0
  9
$DIMTOLJ
 70
     0
  9
$DIMTZIN
 70
     0
  9
$DIMALTZ
 70
     0
  9
$DIMALTTZ
 70
     0
  9
$DIMUPT
 70
     0
  9
$DIMDEC
 70
     2
  9
$DIMTDEC
 70
     2
  9
$DIMALTU
 70
     2
  9
$DIMALTTD
 70
     4
  9
$DIMTXSTY
  7
MX_NOTE_STANDARD
  9
$DIMAUNIT
 70
     0
  9
$DIMADEC
 70
     0
  9
$DIMALTRND
 40
0.0
  9
$DIMAZIN
 70
     0
  9
$DIMDSEP
 70
    46
  9
$DIMATFIT
 70
     3
  9
$DIMFRAC
 70
     0
  9
$DIMLDRBLK
  1
_OPEN30
  9
$DIMLUNIT
 70
     2
  9
$DIMLWD
 70
    -2
  9
$DIMLWE
 70
    -2
  9
$DIMTMOVE
 70
     0
  9
$LUNITS
 70
     2
  9
$LUPREC
 70
     4
  9
$SKETCHINC
 40
0.1
  9
$FILLETRAD
 40
0.0
  9
$AUNITS
 70
     0
  9
$AUPREC
 70
     0
  9
$MENU
  1
acad
  9
$ELEVATION
 40
0.0
  9
$PELEVATION
 40
0.0
  9
$THICKNESS
 40
0.0
  9
$LIMCHECK
 70
     0
  9
$CHAMFERA
 40
0.0
  9
$CHAMFERB
 40
0.0
  9
$CHAMFERC
 40
0.0
  9
$CHAMFERD
 40
0.0
  9
$SKPOLY
 70
     0
  9
$TDCREATE
 40
2456210.710231482
  9
$TDUCREATE
 40
0.000000000
  9
$TDUPDATE
 40
2456210.710231482
  9
$TDUUPDATE
 40
0.000000000
  9
$TDINDWG
 40
0.0000000000
  9
$TDUSRTIMER
 40
0.0000000000
  9
$USRTIMER
 70
     1
  9
$ANGBASE
 50
0.0
  9
$ANGDIR
 70
     0
  9
$PDMODE
 70
     0
  9
$PDSIZE
 40
0.0
  9
$PLINEWID
 40
0.0
  9
$SPLFRAME
 70
     0
  9
$SPLINETYPE
 70
     6
  9
$SPLINESEGS
 70
     8
  9
$HANDSEED
  5
12D
  9
$SURFTAB1
 70
     6
  9
$SURFTAB2
 70
     6
  9
$SURFTYPE
 70
     6
  9
$SURFU
 70
     6
  9
$SURFV
 70
     6
  9
$UCSBASE
  2

  9
$UCSNAME
  2

  9
$UCSORG
 10
0.0
 20
0.0
 30
0.0
  9
$UCSXDIR
 10
1.0
 20
0.0
 30
0.0
  9
$UCSYDIR
 10
0.0
 20
1.0
 30
0.0
  9
$UCSORTHOREF
  2

  9
$UCSORTHOVIEW
 70
     0
  9
$UCSORGTOP
 10
0.0
 20
0.0
 30
0.0
  9
$UCSORGBOTTOM
 10
0.0
 20
0.0
 30
0.0
  9
$UCSORGLEFT
 10
0.0
 20
0.0
 30
0.0
  9
$UCSORGRIGHT
 10
0.0
 20
0.0
 30
0.0
  9
$UCSORGFRONT
 10
0.0
 20
0.0
 30
0.0
  9
$UCSORGBACK
 10
0.0
 20
0.0
 30
0.0
  9
$PUCSBASE
  2

  9
$PUCSNAME
  2

  9
$PUCSORG
 10
0.0
 20
0.0
 30
0.0
  9
$PUCSXDIR
 10
1.0
 20
0.0
 30
0.0
  9
$PUCSYDIR
 10
0.0
 20
1.0
 30
0.0
  9
$PUCSORTHOREF
  2

  9
$PUCSORTHOVIEW
 70
     0
  9
$PUCSORGTOP
 10
0.0
 20
0.0
 30
0.0
  9
$PUCSORGBOTTOM
 10
0.0
 20
0.0
 30
0.0
  9
$PUCSORGLEFT
 10
0.0
 20
0.0
 30
0.0
  9
$PUCSORGRIGHT
 10
0.0
 20
0.0
 30
0.0
  9
$PUCSORGFRONT
 10
0.0
 20
0.0
 30
0.0
  9
$PUCSORGBACK
 10
0.0
 20
0.0
 30
0.0
  9
$USERI1
 70
     0
  9
$USERI2
 70
     0
  9
$USERI3
 70
     0
  9
$USERI4
 70
     0
  9
$USERI5
 70
     0
  9
$USERR1
 40
0.0
  9
$USERR2
 40
0.0
  9
$USERR3
 40
0.0
  9
$USERR4
 40
0.0
  9
$USERR5
 40
0.0
  9
$WORLDVIEW
 70
     1
  9
$SHADEDGE
 70
     3
  9
$SHADEDIF
 70
    70
  9
$TILEMODE
 70
     1
  9
$MAXACTVP
 70
    16
  9
$PINSBASE
 10
0.0
 20
0.0
 30
0.0
  9
$PLIMCHECK
 70
     0
  9
$PEXTMIN
 10
1.000000E+20
 20
1.000000E+20
 30
1.000000E+20
  9
$PEXTMAX
 10
-1.000000E+20
 20
-1.000000E+20
 30
-1.000000E+20
  9
$PLIMMIN
 10
0.0
 20
0.0
  9
$PLIMMAX
 10
12.0
 20
9.0
  9
$UNITMODE
 70
     0
  9
$VISRETAIN
 70
     0
  9
$PLINEGEN
 70
     1
  9
$PSLTSCALE
 70
     0
  9
$TREEDEPTH
 70
  3020
  9
$CMLSTYLE
  2
Standard
  9
$CMLJUST
 70
     0
  9
$CMLSCALE
 40
1.0
  9
$PROXYGRAPHICS
 70
     0
  9
$MEASUREMENT
 70
     1
  9
$CELWEIGHT
370
     0
  9
$ENDCAPS
280
     0
  9
$JOINSTYLE
280
     0
  9
$LWDISPLAY
290
     0
  9
$INSUNITS
 70
     0
  9
$HYPERLINKBASE
  1

  9
$STYLESHEET
  1

  9
$XEDIT
290
     1
  9
$CEPSNTYPE
380
     0
  9
$PSTYLEMODE
290
     1
  9
$FINGERPRINTGUID
  2

  9
$VERSIONGUID
  2

  9
$EXTNAMES
290
     1
  9
$PSVPSCALE
 40
0.0
  0
ENDSEC
  0
SECTION
  2
CLASSES
  0
CLASS
  1
LWPOLYLINE
  2
AcDbPolyline
  3
AutoCAD 2000
 90
        0
280
     0
281
     1
  0
CLASS
  1
IMAGE
  2
AcDbRasterImage
  3
ISM
 90
      127
280
     0
281
     1
  0
CLASS
  1
OLE2FRAME
  2
AcDbOle2Frame
  3
AutoCAD 2000
 90
        0
280
     0
281
     1
  0
CLASS
  1
HATCH
  2
AcDbHatch
  3
AutoCAD 2000
 90
        0
280
     0
281
     1
  0
CLASS
  1
DICTIONARYVAR
  2
AcDbDictionaryVar
  3
AutoCAD 2000
 90
        0
280
     0
281
     0
  0
CLASS
  1
RASTERVARIABLES
  2
AcDbRasterVariables
  3
ISM
 90
        0
280
     0
281
     0
  0
CLASS
  1
IMAGEDEF
  2
AcDbRasterImageDef
  3
ISM
 90
        0
280
     0
281
     0
  0
CLASS
  1
IMAGEDEF_REACTOR
  2
AcDbRasterImageDefReactor
  3
ISM
 90
        1
280
     0
281
     0
  0
CLASS
  1
IDBUFFER
  2
AcDbIdBuffer
  3
AutoCAD 2000
 90
        0
280
     0
281
     0
  0
CLASS
  1
SPATIAL_FILTER
  2
AcDbSpatialFilter
  3
AutoCAD 2000
 90
        0
280
     0
281
     0
  0
CLASS
  1
XRECORD
  2
AcDbXrecord
  3
AutoCAD 2000
 90
        0
280
     0
281
     0
  0
CLASS
  1
SORTENTSTABLE
  2
AcDbSortentsTable
  3
AutoCAD 2000
 90
        0
280
     0
281
     0
  0
CLASS
  1
LAYER_INDEX
  2
AcDbLayerIndex
  3
AutoCAD 2000
 90
        0
280
     0
281
     0
  0
CLASS
  1
SPATIAL_INDEX
  2
AcDbSpatialIndex
  3
AutoCAD 2000
 90
        0
280
     0
281
     0
  0
CLASS
  1
OBJECT_PTR
  2
CAseDLPNTableRecord
  3
"ASE-LPNTableRecord"
 90
        1
280
     0
281
     0
  0
CLASS
  1
LAYOUT
  2
AcDbLayout
  3
AutoCAD 2000
 90
        0
280
     0
281
     0
  0
CLASS
  1
PLOTSETTINGS
  2
AcDbPlotSettings
  3
AutoCAD 2000
 90
        0
280
     0
281
     0
  0
CLASS
  1
ACDBDICTIONARYWDFLT
  2
AcDbDictionaryWithDefault
  3
AutoCAD 2000
 90
        0
280
     0
281
     0
  0
CLASS
  1
ACDBPLACEHOLDER
  2
AcDbPlaceHolder
  3
AutoCAD 2000
 90
        0
280
     0
281
     0
  0
ENDSEC
  0
SECTION
  2
TABLES
  0
TABLE
  2
VPORT
  5
7
100
AcDbSymbolTable
 70
     1
  0
VPORT
  5
15
100
AcDbSymbolTableRecord
100
AcDbViewportTableRecord
  2
*ACTIVE
 70
     0
 10
0.0
 20
0.0
 11
1.0
 21
1.0
 12
152.500012
 22
100.499999
 13
0.0
 23
0.0
 14
1.0
 24
1.0
 15
0.0
 25
0.0
 16
0.0
 26
0.0
 36
1.0
 17
0.0
 27
0.0
 37
0.0
 40
212.100001
 41
1.732051
 42
50.0
 43
0.0
 44
0.0
 50
0.0
 51
0.0
 71
     0
 72
   100
 73
     1
 74
     1
 75
     0
 76
     0
 77
     0
 78
     0
281
     0
 65
     0
110
0.0
120
0.0
130
0.0
111
1.0
121
0.0
131
0.0
112
0.0
122
1.0
132
0.0
345
0
346
0
 79
     0
146
0.0
  0
ENDTAB
  0
TABLE
  2
LTYPE
  5
4
100
AcDbSymbolTable
 70
     4
  0
LTYPE
  5
11
100
AcDbSymbolTableRecord
100
AcDbLinetypeTableRecord
  2
BYBLOCK
 70
    64
  3

 72
    65
 73
     0
 40
0.0
  0
LTYPE
  5
12
100
AcDbSymbolTableRecord
100
AcDbLinetypeTableRecord
  2
BYLAYER
 70
    64
  3

 72
    65
 73
     0
 40
0.0
  0
LTYPE
  5
13
100
AcDbSymbolTableRecord
100
AcDbLinetypeTableRecord
  2
CONTINUOUS
 70
    64
  3
Solid line
 72
    65
 73
     0
 40
0.0
  0
LTYPE
  5
41
100
AcDbSymbolTableRecord
100
AcDbLinetypeTableRecord
  2
CENTER
 70
    64
  3
Center ____ _ ____ _ ____ _ ____ _ ____ _ ____
 72
    65
 73
     4
 40
50.8
 49
31.75
 74
     0
 49
-6.35
 74
     0
 49
6.35
 74
     0
 49
-6.35
 74
     0
  0
ENDTAB
  0
TABLE
  2
LAYER
  5
2
100
AcDbSymbolTable
 70
     2
  0
LAYER
  5
14
100
AcDbSymbolTableRecord
100
AcDbLayerTableRecord
  2
0
 70
     0
 62
     7
  6
CONTINUOUS
290
     1
370
    -3
390
1D
  0
LAYER
  5
23
100
AcDbSymbolTableRecord
100
AcDbLayerTableRecord
  2
DEFPOINTS
 70
     0
 62
     7
  6
CONTINUOUS
290
     0
370
    -3
390
1D
  0
ENDTAB
  0
TABLE
  2
STYLE
  5
3
100
AcDbSymbolTable
 70
     2
  0
STYLE
  5
17
100
AcDbSymbolTableRecord
100
AcDbTextStyleTableRecord
  2
MX_NOTE_STANDARD
 70
     0
 40
0.0
 41
1.0
 50
0.0
 71
     0
 42
3.2
  3
txt.shx
  4
extfont.shx
  0
STYLE
  5
C3
100
AcDbSymbolTableRecord
100
AcDbTextStyleTableRecord
  2
MX_DIMTXSTY_2
 70
     0
 40
0.0
 41
0.65
 50
0.0
 71
     0
 42
3.2
  3
txt.shx
  4
extfont.shx
  0
ENDTAB
  0
TABLE
  2
VIEW
  5
5
100
AcDbSymbolTable
 70
     0
  0
ENDTAB
  0
TABLE
  2
UCS
  5
6
100
AcDbSymbolTable
 70
     0
  0
ENDTAB
  0
TABLE
  2
APPID
  5
8
100
AcDbSymbolTable
 70
     1
  0
APPID
  5
16
100
AcDbSymbolTableRecord
100
AcDbRegAppTableRecord
  2
ACAD
 70
     0
  0
ENDTAB
  0
TABLE
  2
DIMSTYLE
  5
9
100
AcDbSymbolTable
 70
     1
100
AcDbDimStyleTable
 71
     0
  0
DIMSTYLE
105
18
100
AcDbSymbolTableRecord
100
AcDbDimStyleTableRecord
  2
MXDIMSTYLE
 70
     0
  3

  4

 40
1.0
 41
2.5
 42
0.0
 43
3.75
 44
1.52
 45
0.0
 46
0.0
 47
0.0
 48
0.0
 71
     0
 72
     0
 73
     0
 74
     0
 75
     0
 76
     0
 77
     1
 78
     8
 79
     0
140
3.2
141
2.5
142
0.0
143
0.03937
144
1.0
145
0.0
146
1.0
147
1.0
148
0.0
170
     0
171
     4
172
     1
173
     1
174
     0
175
     0
176
     0
177
     0
178
     0
179
     0
271
     2
272
     2
273
     2
274
     4
275
     0
276
     0
277
     2
278
    46
279
     0
280
     0
281
     0
282
     0
283
     0
284
     0
285
     0
286
     0
288
     0
289
     3
340
17
341
24
342
0
343
24
344
24
371
    -2
372
    -2
  0
ENDTAB
  0
TABLE
  2
BLOCK_RECORD
  5
1
100
AcDbSymbolTable
 70
    10
  0
BLOCK_RECORD
  5
A
100
AcDbSymbolTableRecord
100
AcDbBlockTableRecord
  2
*MODEL_SPACE
340
20
  0
BLOCK_RECORD
  5
B
100
AcDbSymbolTableRecord
100
AcDbBlockTableRecord
  2
*PAPER_SPACE
340
21
  0
BLOCK_RECORD
  5
24
100
AcDbSymbolTableRecord
100
AcDbBlockTableRecord
  2
_OPEN30
340
0
  0
BLOCK_RECORD
  5
9A
100
AcDbSymbolTableRecord
100
AcDbBlockTableRecord
  2
*D1
340
0
  0
BLOCK_RECORD
  5
9F
100
AcDbSymbolTableRecord
100
AcDbBlockTableRecord
  2
_OPEN
340
0
102
{BLKREFS
331
A5
331
A6
331
B4
331
B5
331
C1
331
C2
331
CF
331
D0
331
DE
331
DF
331
EB
331
EC
331
F8
331
F9
331
105
331
106
102
}
  0
BLOCK_RECORD
  5
AF
100
AcDbSymbolTableRecord
100
AcDbBlockTableRecord
  2
*D3
340
0
  0
BLOCK_RECORD
  5
BC
100
AcDbSymbolTableRecord
100
AcDbBlockTableRecord
  2
*D4
340
0
  0
BLOCK_RECORD
  5
CA
100
AcDbSymbolTableRecord
100
AcDbBlockTableRecord
  2
*D5
340
0
  0
BLOCK_RECORD
  5
D9
100
AcDbSymbolTableRecord
100
AcDbBlockTableRecord
  2
*D6
340
0
  0
BLOCK_RECORD
  5
E6
100
AcDbSymbolTableRecord
100
AcDbBlockTableRecord
  2
*D7
340
0
  0
BLOCK_RECORD
  5
F3
100
AcDbSymbolTableRecord
100
AcDbBlockTableRecord
  2
*D8
340
0
  0
BLOCK_RECORD
  5
100
100
AcDbSymbolTableRecord
100
AcDbBlockTableRecord
  2
*D9
340
0
  0
ENDTAB
  0
ENDSEC
  0
SECTION
  2
BLOCKS
  0
BLOCK
  5
D
100
AcDbEntity
  8
0
390
0
100
AcDbBlockBegin
  2
*MODEL_SPACE
 70
     0
 10
0.0
 20
0.0
 30
0.0
  3
*MODEL_SPACE
  1

  0
ENDBLK
  5
E
100
AcDbEntity
  8
0
390
0
100
AcDbBlockEnd
  0
BLOCK
  5
F
100
AcDbEntity
 67
     1
  8
0
390
0
100
AcDbBlockBegin
  2
*PAPER_SPACE
 70
     0
 10
0.0
 20
0.0
 30
0.0
  3
*PAPER_SPACE
  1

  0
ENDBLK
  5
10
100
AcDbEntity
 67
     1
  8
0
390
0
100
AcDbBlockEnd
  0
BLOCK
  5
25
100
AcDbEntity
  8
0
370
    -2
390
0
  6
ByBlock
 62
     0
100
AcDbBlockBegin
  2
_OPEN30
 70
     2
 10
0.0
 20
0.0
 30
0.0
  3
_OPEN30
  1

  0
LINE
  5
26
100
AcDbEntity
  8
0
370
    -2
390
0
  6
ByBlock
 62
     0
100
AcDbLine
 10
-1.0
 20
0.267949
 30
0.0
 11
0.0
 21
0.0
 31
0.0
  0
LINE
  5
27
100
AcDbEntity
  8
0
370
    -2
390
0
  6
ByBlock
 62
     0
100
AcDbLine
 10
0.0
 20
0.0
 30
0.0
 11
-1.0
 21
-0.267949
 31
0.0
  0
LINE
  5
28
100
AcDbEntity
  8
0
370
    -2
390
0
  6
ByBlock
 62
     0
100
AcDbLine
 10
0.0
 20
0.0
 30
0.0
 11
-1.0
 21
0.0
 31
0.0
  0
ENDBLK
  5
29
100
AcDbEntity
  8
0
370
    -2
390
0
  6
ByBlock
 62
     0
100
AcDbBlockEnd
  0
BLOCK
  5
9B
100
AcDbEntity
  8
0
370
    -2
390
0
  6
ByBlock
 62
     0
100
AcDbBlockBegin
  2
*D1
 70
     1
 10
0.0
 20
0.0
 30
0.0
  3
*D1
  1

  0
LINE
  5
9C
100
AcDbEntity
  8
0
390
0
  6
CONTINUOUS
 62
   140
100
AcDbLine
 10
102.431129
 20
86.793082
 30
0.0
 11
102.431129
 21
137.793082
 31
0.0
  0
LINE
  5
9D
100
AcDbEntity
  8
0
390
0
  6
CONTINUOUS
 62
   140
100
AcDbLine
 10
116.947014
 20
86.793082
 30
0.0
 11
101.431129
 21
86.793082
 31
0.0
  0
LINE
  5
9E
100
AcDbEntity
  8
0
390
0
  6
CONTINUOUS
 62
   140
100
AcDbLine
 10
116.947014
 20
137.793082
 30
0.0
 11
101.431129
 21
137.793082
 31
0.0
  0
INSERT
  5
A5
100
AcDbEntity
  8
0
390
0
  6
CONTINUOUS
 62
   140
100
AcDbBlockReference
  2
_OPEN
 10
102.431129
 20
86.793082
 30
0.0
 41
3.0
 42
3.0
 43
3.0
 50
270.0
  0
INSERT
  5
A6
100
AcDbEntity
  8
0
390
0
  6
CONTINUOUS
 62
   140
100
AcDbBlockReference
  2
_OPEN
 10
102.431129
 20
137.793082
 30
0.0
 41
3.0
 42
3.0
 43
3.0
 50
90.0
  0
MTEXT
  5
A7
100
AcDbEntity
  8
0
390
0
  6
CONTINUOUS
 62
   140
100
AcDbMText
 10
99.831129
 20
115.98832
 30
0.0
 40
3.2
 41
0.0
 71
     5
 72
     1
  1
\A1;\U+2205２５．５、Ｐ＝０．５
 11
0.0
 21
1.0
 31
0.0
 73
     1
 44
1.0
  0
POINT
  5
A8
100
AcDbEntity
  8
DEFPOINTS
390
0
  6
CONTINUOUS
 62
     0
100
AcDbPoint
 10
116.947014
 20
86.793082
 30
0.0
  0
POINT
  5
A9
100
AcDbEntity
  8
DEFPOINTS
390
0
  6
CONTINUOUS
 62
     0
100
AcDbPoint
 10
116.947014
 20
137.793082
 30
0.0
  0
POINT
  5
AA
100
AcDbEntity
  8
DEFPOINTS
390
0
  6
CONTINUOUS
 62
     0
100
AcDbPoint
 10
102.431129
 20
137.793082
 30
0.0
  0
ENDBLK
  5
AB
100
AcDbEntity
  8
0
370
    -2
390
0
  6
ByBlock
 62
     0
100
AcDbBlockEnd
  0
BLOCK
  5
A0
100
AcDbEntity
  8
0
370
    -2
390
0
  6
ByBlock
 62
     0
100
AcDbBlockBegin
  2
_OPEN
 70
     2
 10
0.0
 20
0.0
 30
0.0
  3
_OPEN
  1

  0
LINE
  5
A1
100
AcDbEntity
  8
0
370
    -2
390
0
  6
ByBlock
 62
     0
100
AcDbLine
 10
-1.0
 20
0.166667
 30
0.0
 11
0.0
 21
0.0
 31
0.0
  0
LINE
  5
A2
100
AcDbEntity
  8
0
370
    -2
390
0
  6
ByBlock
 62
     0
100
AcDbLine
 10
0.0
 20
0.0
 30
0.0
 11
-1.0
 21
-0.166667
 31
0.0
  0
LINE
  5
A3
100
AcDbEntity
  8
0
370
    -2
390
0
  6
ByBlock
 62
     0
100
AcDbLine
 10
0.0
 20
0.0
 30
0.0
 11
-1.0
 21
0.0
 31
0.0
  0
ENDBLK
  5
A4
100
AcDbEntity
  8
0
370
    -2
390
0
  6
ByBlock
 62
     0
100
AcDbBlockEnd
  0
BLOCK
  5
B0
100
AcDbEntity
  8
0
370
    -2
390
0
  6
ByBlock
 62
     0
100
AcDbBlockBegin
  2
*D3
 70
     1
 10
0.0
 20
0.0
 30
0.0
  3
*D3
  1

  0
LINE
  5
B1
100
AcDbEntity
  8
0
390
0
  6
CONTINUOUS
 62
   140
100
AcDbLine
 10
204.739014
 20
61.929386
 30
0.0
 11
169.687014
 21
61.929386
 31
0.0
  0
LINE
  5
B2
100
AcDbEntity
  8
0
390
0
  6
CONTINUOUS
 62
   140
100
AcDbLine
 10
204.739014
 20
112.293082
 30
0.0
 11
204.739014
 21
60.929386
 31
0.0
  0
LINE
  5
B3
100
AcDbEntity
  8
0
390
0
  6
CONTINUOUS
 62
   140
100
AcDbLine
 10
169.687014
 20
82.693082
 30
0.0
 11
169.687014
 21
60.929386
 31
0.0
  0
INSERT
  5
B4
100
AcDbEntity
  8
0
390
0
  6
CONTINUOUS
 62
   140
100
AcDbBlockReference
  2
_OPEN
 10
204.739014
 20
61.929386
 30
0.0
 41
3.0
 42
3.0
 43
3.0
  0
INSERT
  5
B5
100
AcDbEntity
  8
0
390
0
  6
CONTINUOUS
 62
   140
100
AcDbBlockReference
  2
_OPEN
 10
169.687014
 20
61.929386
 30
0.0
 41
3.0
 42
3.0
 43
3.0
 50
180.0
  0
MTEXT
  5
B6
100
AcDbEntity
  8
0
390
0
  6
CONTINUOUS
 62
   140
100
AcDbMText
 10
189.399669
 20
64.529386
 30
0.0
 40
3.2
 41
0.0
 71
     5
 72
     1
  1
\A1;１７．５２６
 11
1.0
 21
0.0
 31
0.0
 73
     1
 44
1.0
  0
POINT
  5
B7
100
AcDbEntity
  8
DEFPOINTS
390
0
  6
CONTINUOUS
 62
     0
100
AcDbPoint
 10
204.739014
 20
112.293082
 30
0.0
  0
POINT
  5
B8
100
AcDbEntity
  8
DEFPOINTS
390
0
  6
CONTINUOUS
 62
     0
100
AcDbPoint
 10
169.687014
 20
82.693082
 30
0.0
  0
POINT
  5
B9
100
AcDbEntity
  8
DEFPOINTS
390
0
  6
CONTINUOUS
 62
     0
100
AcDbPoint
 10
169.687014
 20
61.929386
 30
0.0
  0
ENDBLK
  5
BA
100
AcDbEntity
  8
0
370
    -2
390
0
  6
ByBlock
 62
     0
100
AcDbBlockEnd
  0
BLOCK
  5
BD
100
AcDbEntity
  8
0
370
    -2
390
0
  6
ByBlock
 62
     0
100
AcDbBlockBegin
  2
*D4
 70
     1
 10
0.0
 20
0.0
 30
0.0
  3
*D4
  1

  0
LINE
  5
BE
100
AcDbEntity
  8
0
390
0
  6
CONTINUOUS
 62
   140
100
AcDbLine
 10
197.51535
 20
137.693085
 30
0.0
 11
197.51535
 21
86.893082
 31
0.0
  0
LINE
  5
BF
100
AcDbEntity
  8
0
390
0
  6
CONTINUOUS
 62
   140
100
AcDbLine
 10
177.051926
 20
137.693085
 30
0.0
 11
198.51535
 21
137.693085
 31
0.0
  0
LINE
  5
C0
100
AcDbEntity
  8
0
390
0
  6
CONTINUOUS
 62
   140
100
AcDbLine
 10
177.051926
 20
86.893082
 30
0.0
 11
198.51535
 21
86.893082
 31
0.0
  0
INSERT
  5
C1
100
AcDbEntity
  8
0
390
0
  6
CONTINUOUS
 62
   140
100
AcDbBlockReference
  2
_OPEN
 10
197.51535
 20
137.693085
 30
0.0
 41
3.0
 42
3.0
 43
3.0
 50
90.0
  0
INSERT
  5
C2
100
AcDbEntity
  8
0
390
0
  6
CONTINUOUS
 62
   140
100
AcDbBlockReference
  2
_OPEN
 10
197.51535
 20
86.893082
 30
0.0
 41
3.0
 42
3.0
 43
3.0
 50
270.0
  0
MTEXT
  5
C4
100
AcDbEntity
  8
0
390
0
  6
CONTINUOUS
 62
   140
100
AcDbMText
 10
194.91535
 20
124.379401
 30
0.0
 40
3.2
 41
0.0
 71
     5
 72
     1
  1
\A1;１－３２ＵＮ－２Ａ
  7
MX_DIMTXSTY_2
 11
0.0
 21
1.0
 31
0.0
 73
     1
 44
1.0
  0
POINT
  5
C5
100
AcDbEntity
  8
DEFPOINTS
390
0
  6
CONTINUOUS
 62
     0
100
AcDbPoint
 10
177.051926
 20
137.693085
 30
0.0
  0
POINT
  5
C6
100
AcDbEntity
  8
DEFPOINTS
390
0
  6
CONTINUOUS
 62
     0
100
AcDbPoint
 10
177.051926
 20
86.893082
 30
0.0
  0
POINT
  5
C7
100
AcDbEntity
  8
DEFPOINTS
390
0
  6
CONTINUOUS
 62
     0
100
AcDbPoint
 10
197.51535
 20
86.893082
 30
0.0
  0
ENDBLK
  5
C8
100
AcDbEntity
  8
0
370
    -2
390
0
  6
ByBlock
 62
     0
100
AcDbBlockEnd
  0
BLOCK
  5
CB
100
AcDbEntity
  8
0
370
    -2
390
0
  6
ByBlock
 62
     0
100
AcDbBlockBegin
  2
*D5
 70
     1
 10
0.0
 20
0.0
 30
0.0
  3
*D5
  1

  0
LINE
  5
CC
100
AcDbEntity
  8
0
390
0
  6
CONTINUOUS
 62
   140
100
AcDbLine
 10
118.947014
 20
155.770676
 30
0.0
 11
177.687014
 21
155.770676
 31
0.0
  0
LINE
  5
CD
100
AcDbEntity
  8
0
390
0
  6
CONTINUOUS
 62
   140
100
AcDbLine
 10
118.947014
 20
139.893082
 30
0.0
 11
118.947014
 21
156.770676
 31
0.0
  0
LINE
  5
CE
100
AcDbEntity
  8
0
390
0
  6
CONTINUOUS
 62
   140
100
AcDbLine
 10
177.687014
 20
136.593082
 30
0.0
 11
177.687014
 21
156.770676
 31
0.0
  0
INSERT
  5
CF
100
AcDbEntity
  8
0
390
0
  6
CONTINUOUS
 62
   140
100
AcDbBlockReference
  2
_OPEN
 10
118.947014
 20
155.770676
 30
0.0
 41
3.0
 42
3.0
 43
3.0
 50
180.0
  0
INSERT
  5
D0
100
AcDbEntity
  8
0
390
0
  6
CONTINUOUS
 62
   140
100
AcDbBlockReference
  2
_OPEN
 10
177.687014
 20
155.770676
 30
0.0
 41
3.0
 42
3.0
 43
3.0
  0
MTEXT
  5
D1
100
AcDbEntity
  8
0
390
0
  6
CONTINUOUS
 62
   140
100
AcDbMText
 10
159.562019
 20
158.370676
 30
0.0
 40
3.2
 41
0.0
 71
     5
 72
     1
  1
\A1;Ａｖｅｎｔｕｒｉｎｅ　Ｂｌａｃｋ
 73
     1
 44
1.0
  0
POINT
  5
D2
100
AcDbEntity
  8
DEFPOINTS
390
0
  6
CONTINUOUS
 62
     0
100
AcDbPoint
 10
118.947014
 20
139.893082
 30
0.0
  0
POINT
  5
D3
100
AcDbEntity
  8
DEFPOINTS
390
0
  6
CONTINUOUS
 62
     0
100
AcDbPoint
 10
177.687014
 20
136.593082
 30
0.0
  0
POINT
  5
D4
100
AcDbEntity
  8
DEFPOINTS
390
0
  6
CONTINUOUS
 62
     0
100
AcDbPoint
 10
177.687014
 20
155.770676
 30
0.0
  0
ENDBLK
  5
D5
100
AcDbEntity
  8
0
370
    -2
390
0
  6
ByBlock
 62
     0
100
AcDbBlockEnd
  0
BLOCK
  5
DA
100
AcDbEntity
  8
0
370
    -2
390
0
  6
ByBlock
 62
     0
100
AcDbBlockBegin
  2
*D6
 70
     1
 10
0.0
 20
0.0
 30
0.0
  3
*D6
  1

  0
LINE
  5
DB
100
AcDbEntity
  8
0
390
0
  6
CONTINUOUS
 62
   140
100
AcDbLine
 10
86.431129
 20
82.293082
 30
0.0
 11
86.431129
 21
142.293082
 31
0.0
  0
LINE
  5
DC
100
AcDbEntity
  8
0
390
0
  6
CONTINUOUS
 62
   140
100
AcDbLine
 10
126.347014
 20
82.293082
 30
0.0
 11
85.431129
 21
82.293082
 31
0.0
  0
LINE
  5
DD
100
AcDbEntity
  8
0
390
0
  6
CONTINUOUS
 62
   140
100
AcDbLine
 10
126.347014
 20
142.293082
 30
0.0
 11
85.431129
 21
142.293082
 31
0.0
  0
INSERT
  5
DE
100
AcDbEntity
  8
0
390
0
  6
CONTINUOUS
 62
   140
100
AcDbBlockReference
  2
_OPEN
 10
86.431129
 20
82.293082
 30
0.0
 41
3.0
 42
3.0
 43
3.0
 50
270.0
  0
INSERT
  5
DF
100
AcDbEntity
  8
0
390
0
  6
CONTINUOUS
 62
   140
100
AcDbBlockReference
  2
_OPEN
 10
86.431129
 20
142.293082
 30
0.0
 41
3.0
 42
3.0
 43
3.0
 50
90.0
  0
MTEXT
  5
E0
100
AcDbEntity
  8
0
390
0
  6
CONTINUOUS
 62
   140
100
AcDbMText
 10
83.831129
 20
113.428315
 30
0.0
 40
3.2
 41
0.0
 71
     5
 72
     1
  1
\A1;\U+2205３０
 11
0.0
 21
1.0
 31
0.0
 73
     1
 44
1.0
  0
POINT
  5
E1
100
AcDbEntity
  8
DEFPOINTS
390
0
  6
CONTINUOUS
 62
     0
100
AcDbPoint
 10
126.347014
 20
82.293082
 30
0.0
  0
POINT
  5
E2
100
AcDbEntity
  8
DEFPOINTS
390
0
  6
CONTINUOUS
 62
     0
100
AcDbPoint
 10
126.347014
 20
142.293082
 30
0.0
  0
POINT
  5
E3
100
AcDbEntity
  8
DEFPOINTS
390
0
  6
CONTINUOUS
 62
     0
100
AcDbPoint
 10
86.431129
 20
142.293082
 30
0.0
  0
ENDBLK
  5
E4
100
AcDbEntity
  8
0
370
    -2
390
0
  6
ByBlock
 62
     0
100
AcDbBlockEnd
  0
BLOCK
  5
E7
100
AcDbEntity
  8
0
370
    -2
390
0
  6
ByBlock
 62
     0
100
AcDbBlockBegin
  2
*D7
 70
     1
 10
0.0
 20
0.0
 30
0.0
  3
*D7
  1

  0
LINE
  5
E8
100
AcDbEntity
  8
0
390
0
  6
CONTINUOUS
 62
   140
100
AcDbLine
 10
94.431129
 20
84.293082
 30
0.0
 11
94.431129
 21
140.293082
 31
0.0
  0
LINE
  5
E9
100
AcDbEntity
  8
0
390
0
  6
CONTINUOUS
 62
   140
100
AcDbLine
 10
119.347014
 20
84.293082
 30
0.0
 11
93.431129
 21
84.293082
 31
0.0
  0
LINE
  5
EA
100
AcDbEntity
  8
0
390
0
  6
CONTINUOUS
 62
   140
100
AcDbLine
 10
119.347014
 20
140.293082
 30
0.0
 11
93.431129
 21
140.293082
 31
0.0
  0
INSERT
  5
EB
100
AcDbEntity
  8
0
390
0
  6
CONTINUOUS
 62
   140
100
AcDbBlockReference
  2
_OPEN
 10
94.431129
 20
84.293082
 30
0.0
 41
3.0
 42
3.0
 43
3.0
 50
270.0
  0
INSERT
  5
EC
100
AcDbEntity
  8
0
390
0
  6
CONTINUOUS
 62
   140
100
AcDbBlockReference
  2
_OPEN
 10
94.431129
 20
140.293082
 30
0.0
 41
3.0
 42
3.0
 43
3.0
 50
90.0
  0
MTEXT
  5
ED
100
AcDbEntity
  8
0
390
0
  6
CONTINUOUS
 62
   140
100
AcDbMText
 10
91.831129
 20
113.428315
 30
0.0
 40
3.2
 41
0.0
 71
     5
 72
     1
  1
\A1;\U+2205２８
 11
0.0
 21
1.0
 31
0.0
 73
     1
 44
1.0
  0
POINT
  5
EE
100
AcDbEntity
  8
DEFPOINTS
390
0
  6
CONTINUOUS
 62
     0
100
AcDbPoint
 10
119.347014
 20
84.293082
 30
0.0
  0
POINT
  5
EF
100
AcDbEntity
  8
DEFPOINTS
390
0
  6
CONTINUOUS
 62
     0
100
AcDbPoint
 10
119.347014
 20
140.293082
 30
0.0
  0
POINT
  5
F0
100
AcDbEntity
  8
DEFPOINTS
390
0
  6
CONTINUOUS
 62
     0
100
AcDbPoint
 10
94.431129
 20
140.293082
 30
0.0
  0
ENDBLK
  5
F1
100
AcDbEntity
  8
0
370
    -2
390
0
  6
ByBlock
 62
     0
100
AcDbBlockEnd
  0
BLOCK
  5
F4
100
AcDbEntity
  8
0
370
    -2
390
0
  6
ByBlock
 62
     0
100
AcDbBlockBegin
  2
*D8
 70
     1
 10
0.0
 20
0.0
 30
0.0
  3
*D8
  1

  0
LINE
  5
F5
100
AcDbEntity
  8
0
390
0
  6
CONTINUOUS
 62
   140
100
AcDbLine
 10
177.687014
 20
69.929382
 30
0.0
 11
169.687014
 21
69.929382
 31
0.0
  0
LINE
  5
F6
100
AcDbEntity
  8
0
390
0
  6
CONTINUOUS
 62
   140
100
AcDbLine
 10
177.687014
 20
87.993082
 30
0.0
 11
177.687014
 21
68.929382
 31
0.0
  0
LINE
  5
F7
100
AcDbEntity
  8
0
390
0
  6
CONTINUOUS
 62
   140
100
AcDbLine
 10
169.687014
 20
82.693082
 30
0.0
 11
169.687014
 21
68.929382
 31
0.0
  0
INSERT
  5
F8
100
AcDbEntity
  8
0
390
0
  6
CONTINUOUS
 62
   140
100
AcDbBlockReference
  2
_OPEN
 10
177.687014
 20
69.929382
 30
0.0
 41
3.0
 42
3.0
 43
3.0
  0
INSERT
  5
F9
100
AcDbEntity
  8
0
390
0
  6
CONTINUOUS
 62
   140
100
AcDbBlockReference
  2
_OPEN
 10
169.687014
 20
69.929382
 30
0.0
 41
3.0
 42
3.0
 43
3.0
 50
180.0
  0
MTEXT
  5
FA
100
AcDbEntity
  8
0
390
0
  6
CONTINUOUS
 62
   140
100
AcDbMText
 10
174.273668
 20
72.529382
 30
0.0
 40
3.2
 41
0.0
 71
     5
 72
     1
  1
\A1;４
 11
1.0
 21
0.0
 31
0.0
 73
     1
 44
1.0
  0
POINT
  5
FB
100
AcDbEntity
  8
DEFPOINTS
390
0
  6
CONTINUOUS
 62
     0
100
AcDbPoint
 10
177.687014
 20
87.993082
 30
0.0
  0
POINT
  5
FC
100
AcDbEntity
  8
DEFPOINTS
390
0
  6
CONTINUOUS
 62
     0
100
AcDbPoint
 10
169.687014
 20
82.693082
 30
0.0
  0
POINT
  5
FD
100
AcDbEntity
  8
DEFPOINTS
390
0
  6
CONTINUOUS
 62
     0
100
AcDbPoint
 10
169.687014
 20
69.929382
 30
0.0
  0
ENDBLK
  5
FE
100
AcDbEntity
  8
0
370
    -2
390
0
  6
ByBlock
 62
     0
100
AcDbBlockEnd
  0
BLOCK
  5
101
100
AcDbEntity
  8
0
370
    -2
390
0
  6
ByBlock
 62
     0
100
AcDbBlockBegin
  2
*D9
 70
     1
 10
0.0
 20
0.0
 30
0.0
  3
*D9
  1

  0
LINE
  5
102
100
AcDbEntity
  8
0
390
0
  6
CONTINUOUS
 62
   140
100
AcDbLine
 10
169.687014
 20
61.929386
 30
0.0
 11
118.947014
 21
61.929386
 31
0.0
  0
LINE
  5
103
100
AcDbEntity
  8
0
390
0
  6
CONTINUOUS
 62
   140
100
AcDbLine
 10
169.687014
 20
82.693082
 30
0.0
 11
169.687014
 21
60.929386
 31
0.0
  0
LINE
  5
104
100
AcDbEntity
  8
0
390
0
  6
CONTINUOUS
 62
   140
100
AcDbLine
 10
118.947014
 20
84.693082
 30
0.0
 11
118.947014
 21
60.929386
 31
0.0
  0
INSERT
  5
105
100
AcDbEntity
  8
0
390
0
  6
CONTINUOUS
 62
   140
100
AcDbBlockReference
  2
_OPEN
 10
169.687014
 20
61.929386
 30
0.0
 41
3.0
 42
3.0
 43
3.0
  0
INSERT
  5
106
100
AcDbEntity
  8
0
390
0
  6
CONTINUOUS
 62
   140
100
AcDbBlockReference
  2
_OPEN
 10
118.947014
 20
61.929386
 30
0.0
 41
3.0
 42
3.0
 43
3.0
 50
180.0
  0
MTEXT
  5
107
100
AcDbEntity
  8
0
390
0
  6
CONTINUOUS
 62
   140
100
AcDbMText
 10
147.78368
 20
62.929386
 30
0.0
 40
3.2
 41
0.0
 71
     8
 72
     1
  1
\A1;２５．３７（∞）
 11
1.0
 21
0.0
 31
0.0
 73
     1
 44
1.0
  0
MTEXT
  5
108
100
AcDbEntity
  8
0
390
0
  6
CONTINUOUS
 62
   140
100
AcDbMText
 10
147.78368
 20
60.929386
 30
0.0
 40
3.2
 41
0.0
 71
     2
 72
     1
  1
\A1;２９．４２（ＭＯＤ）
 11
1.0
 21
0.0
 31
0.0
 73
     1
 44
1.0
  0
POINT
  5
109
100
AcDbEntity
  8
DEFPOINTS
390
0
  6
CONTINUOUS
 62
     0
100
AcDbPoint
 10
169.687014
 20
82.693082
 30
0.0
  0
POINT
  5
10A
100
AcDbEntity
  8
DEFPOINTS
390
0
  6
CONTINUOUS
 62
     0
100
AcDbPoint
 10
118.947014
 20
84.693082
 30
0.0
  0
POINT
  5
10B
100
AcDbEntity
  8
DEFPOINTS
390
0
  6
CONTINUOUS
 62
     0
100
AcDbPoint
 10
118.947014
 20
61.929386
 30
0.0
  0
ENDBLK
  5
10C
100
AcDbEntity
  8
0
370
    -2
390
0
  6
ByBlock
 62
     0
100
AcDbBlockEnd
  0
ENDSEC
  0
SECTION
  2
ENTITIES
  0
LINE
  5
2A
100
AcDbEntity
  8
0
390
0
  6
CONTINUOUS
 62
   110
100
AcDbLine
 10
169.687014
 20
136.593081
 30
0.0
 11
171.687014
 21
136.593081
 31
0.0
  0
LINE
  5
2B
100
AcDbEntity
  8
0
390
0
  6
CONTINUOUS
 62
   110
100
AcDbLine
 10
177.687014
 20
136.593081
 30
0.0
 11
177.051928
 21
137.693081
 31
0.0
  0
LINE
  5
2C
100
AcDbEntity
  8
0
390
0
  6
CONTINUOUS
 62
   110
100
AcDbLine
 10
177.051928
 20
137.693081
 30
0.0
 11
177.051928
 21
112.293081
 31
0.0
  0
LINE
  5
2D
100
AcDbEntity
  8
0
390
0
  6
CONTINUOUS
 62
   110
100
AcDbLine
 10
165.087014
 20
82.293081
 30
0.0
 11
165.087014
 21
112.293081
 31
0.0
  0
LINE
  5
2E
100
AcDbEntity
  8
0
390
0
  6
CONTINUOUS
 62
   110
100
AcDbLine
 10
169.287014
 20
82.293081
 30
0.0
 11
169.287014
 21
112.293081
 31
0.0
  0
LINE
  5
2F
100
AcDbEntity
  8
0
390
0
  6
CONTINUOUS
 62
   110
100
AcDbLine
 10
126.347014
 20
82.293081
 30
0.0
 11
126.347014
 21
112.293081
 31
0.0
  0
LINE
  5
30
100
AcDbEntity
  8
0
390
0
  6
CONTINUOUS
 62
   110
100
AcDbLine
 10
126.347014
 20
82.293081
 30
0.0
 11
124.347014
 21
84.293081
 31
0.0
  0
LINE
  5
31
100
AcDbEntity
  8
0
390
0
  6
CONTINUOUS
 62
   110
100
AcDbLine
 10
164.687014
 20
85.693081
 30
0.0
 11
163.147014
 21
85.693081
 31
0.0
  0
LINE
  5
32
100
AcDbEntity
  8
0
390
0
  6
CONTINUOUS
 62
   110
100
AcDbLine
 10
164.687014
 20
82.693081
 30
0.0
 11
164.687014
 21
112.293081
 31
0.0
  0
LINE
  5
33
100
AcDbEntity
  8
0
390
0
  6
CONTINUOUS
 62
   110
100
AcDbLine
 10
118.947014
 20
84.693081
 30
0.0
 11
118.947014
 21
112.293081
 31
0.0
  0
LINE
  5
34
100
AcDbEntity
  8
0
390
0
  6
CONTINUOUS
 62
   110
100
AcDbLine
 10
124.347014
 20
84.293081
 30
0.0
 11
124.347014
 21
112.293081
 31
0.0
  0
LINE
  5
35
100
AcDbEntity
  8
0
390
0
  6
CONTINUOUS
 62
   110
100
AcDbLine
 10
119.347014
 20
84.293081
 30
0.0
 11
124.347014
 21
84.293081
 31
0.0
  0
LINE
  5
36
100
AcDbEntity
  8
0
390
0
  6
CONTINUOUS
 62
   110
100
AcDbLine
 10
126.347014
 20
82.293081
 30
0.0
 11
144.147014
 21
82.293081
 31
0.0
  0
LINE
  5
37
100
AcDbEntity
  8
0
390
0
  6
CONTINUOUS
 62
   110
100
AcDbLine
 10
144.547014
 20
82.693081
 30
0.0
 11
144.547014
 21
112.293081
 31
0.0
  0
LINE
  5
38
100
AcDbEntity
  8
0
390
0
  6
CONTINUOUS
 62
   110
100
AcDbLine
 10
162.747014
 20
82.293081
 30
0.0
 11
162.747014
 21
112.293081
 31
0.0
  0
LINE
  5
39
100
AcDbEntity
  8
0
390
0
  6
CONTINUOUS
 62
   110
100
AcDbLine
 10
146.547014
 20
82.693081
 30
0.0
 11
146.547014
 21
112.293081
 31
0.0
  0
LINE
  5
3A
100
AcDbEntity
  8
0
390
0
  6
CONTINUOUS
 62
   110
100
AcDbLine
 10
119.347014
 20
84.293081
 30
0.0
 11
119.347014
 21
112.293081
 31
0.0
  0
LINE
  5
3B
100
AcDbEntity
  8
0
390
0
  6
CONTINUOUS
 62
   110
100
AcDbLine
 10
144.147014
 20
82.293081
 30
0.0
 11
144.147014
 21
112.293081
 31
0.0
  0
LINE
  5
3C
100
AcDbEntity
  8
0
390
0
  6
CONTINUOUS
 62
   110
100
AcDbLine
 10
146.947014
 20
82.293081
 30
0.0
 11
146.947014
 21
112.293081
 31
0.0
  0
LINE
  5
3D
100
AcDbEntity
  8
0
390
0
  6
CONTINUOUS
 62
   110
100
AcDbLine
 10
163.147014
 20
82.693081
 30
0.0
 11
163.147014
 21
112.293081
 31
0.0
  0
LINE
  5
3E
100
AcDbEntity
  8
0
390
0
  6
CONTINUOUS
 62
   110
100
AcDbLine
 10
144.547014
 20
84.193081
 30
0.0
 11
146.547014
 21
84.193081
 31
0.0
  0
LINE
  5
3F
100
AcDbEntity
  8
0
390
0
  6
CONTINUOUS
 62
   110
100
AcDbLine
 10
146.947014
 20
82.293081
 30
0.0
 11
162.747014
 21
82.293081
 31
0.0
  0
LINE
  5
40
100
AcDbEntity
  8
0
390
0
  6
CONTINUOUS
 62
   110
100
AcDbLine
 10
169.287014
 20
82.293081
 30
0.0
 11
165.087014
 21
82.293081
 31
0.0
  0
LINE
  5
42
100
AcDbEntity
  8
0
390
0
  6
CENTER
 62
   110
100
AcDbLine
 10
177.687014
 20
136.593081
 30
0.0
 11
171.687014
 21
136.593081
 31
0.0
  0
LINE
  5
43
100
AcDbEntity
  8
0
390
0
  6
CONTINUOUS
 62
   110
100
AcDbLine
 10
171.687014
 20
112.293081
 30
0.0
 11
171.687014
 21
137.693081
 31
0.0
  0
LINE
  5
44
100
AcDbEntity
  8
0
390
0
  6
CONTINUOUS
 62
   110
100
AcDbLine
 10
177.687014
 20
112.293081
 30
0.0
 11
177.687014
 21
136.593081
 31
0.0
  0
LINE
  5
45
100
AcDbEntity
  8
0
390
0
  6
CONTINUOUS
 62
   110
100
AcDbLine
 10
177.051928
 20
137.693081
 30
0.0
 11
171.687014
 21
137.693081
 31
0.0
  0
LINE
  5
46
100
AcDbEntity
  8
0
390
0
  6
CENTER
 62
   110
100
AcDbLine
 10
177.687014
 20
87.993081
 30
0.0
 11
171.687014
 21
87.993081
 31
0.0
  0
LINE
  5
47
100
AcDbEntity
  8
0
390
0
  6
CONTINUOUS
 62
   110
100
AcDbLine
 10
171.687014
 20
112.293081
 30
0.0
 11
171.687014
 21
86.893081
 31
0.0
  0
LINE
  5
48
100
AcDbEntity
  8
0
390
0
  6
CONTINUOUS
 62
   110
100
AcDbLine
 10
177.687014
 20
112.293081
 30
0.0
 11
177.687014
 21
87.993081
 31
0.0
  0
LINE
  5
49
100
AcDbEntity
  8
0
390
0
  6
CONTINUOUS
 62
   110
100
AcDbLine
 10
177.051928
 20
86.893081
 30
0.0
 11
171.687014
 21
86.893081
 31
0.0
  0
LINE
  5
4A
100
AcDbEntity
  8
0
390
0
  6
CONTINUOUS
 62
   110
100
AcDbLine
 10
169.687014
 20
112.293081
 30
0.0
 11
169.687014
 21
82.693081
 31
0.0
  0
LINE
  5
4B
100
AcDbEntity
  8
0
390
0
  6
CONTINUOUS
 62
   110
100
AcDbLine
 10
144.547014
 20
140.393081
 30
0.0
 11
146.547014
 21
140.393081
 31
0.0
  0
LINE
  5
4C
100
AcDbEntity
  8
0
390
0
  6
CONTINUOUS
 62
   110
100
AcDbLine
 10
163.147014
 20
141.893081
 30
0.0
 11
163.147014
 21
112.293081
 31
0.0
  0
LINE
  5
4D
100
AcDbEntity
  8
0
390
0
  6
CONTINUOUS
 62
   110
100
AcDbLine
 10
169.287014
 20
142.293081
 30
0.0
 11
165.087014
 21
142.293081
 31
0.0
  0
LINE
  5
4E
100
AcDbEntity
  8
0
390
0
  6
CONTINUOUS
 62
   110
100
AcDbLine
 10
144.147014
 20
142.293081
 30
0.0
 11
144.147014
 21
112.293081
 31
0.0
  0
LINE
  5
4F
100
AcDbEntity
  8
0
390
0
  6
CONTINUOUS
 62
   110
100
AcDbLine
 10
119.347014
 20
140.293081
 30
0.0
 11
119.347014
 21
112.293081
 31
0.0
  0
LINE
  5
50
100
AcDbEntity
  8
0
390
0
  6
CONTINUOUS
 62
   110
100
AcDbLine
 10
146.947014
 20
142.293081
 30
0.0
 11
162.747014
 21
142.293081
 31
0.0
  0
LINE
  5
51
100
AcDbEntity
  8
0
390
0
  6
CONTINUOUS
 62
   110
100
AcDbLine
 10
146.947014
 20
142.293081
 30
0.0
 11
146.947014
 21
112.293081
 31
0.0
  0
LINE
  5
52
100
AcDbEntity
  8
0
390
0
  6
CONTINUOUS
 62
   110
100
AcDbLine
 10
169.687014
 20
112.293081
 30
0.0
 11
169.687014
 21
141.893081
 31
0.0
  0
LINE
  5
53
100
AcDbEntity
  8
0
390
0
  6
CONTINUOUS
 62
   110
100
AcDbLine
 10
164.687014
 20
138.893081
 30
0.0
 11
163.147014
 21
138.893081
 31
0.0
  0
LINE
  5
54
100
AcDbEntity
  8
0
390
0
  6
CONTINUOUS
 62
   110
100
AcDbLine
 10
126.347014
 20
142.293081
 30
0.0
 11
124.347014
 21
140.293081
 31
0.0
  0
LINE
  5
55
100
AcDbEntity
  8
0
390
0
  6
CONTINUOUS
 62
   110
100
AcDbLine
 10
118.947014
 20
139.893081
 30
0.0
 11
118.947014
 21
112.293081
 31
0.0
  0
LINE
  5
56
100
AcDbEntity
  8
0
390
0
  6
CONTINUOUS
 62
   110
100
AcDbLine
 10
169.287014
 20
142.293081
 30
0.0
 11
169.287014
 21
112.293081
 31
0.0
  0
LINE
  5
57
100
AcDbEntity
  8
0
390
0
  6
CONTINUOUS
 62
   110
100
AcDbLine
 10
165.087014
 20
142.293081
 30
0.0
 11
165.087014
 21
112.293081
 31
0.0
  0
LINE
  5
58
100
AcDbEntity
  8
0
390
0
  6
CONTINUOUS
 62
   110
100
AcDbLine
 10
164.687014
 20
141.893081
 30
0.0
 11
164.687014
 21
112.293081
 31
0.0
  0
LINE
  5
59
100
AcDbEntity
  8
0
390
0
  6
CONTINUOUS
 62
   110
100
AcDbLine
 10
126.347014
 20
142.293081
 30
0.0
 11
126.347014
 21
112.293081
 31
0.0
  0
LINE
  5
5A
100
AcDbEntity
  8
0
390
0
  6
CONTINUOUS
 62
   110
100
AcDbLine
 10
162.747014
 20
142.293081
 30
0.0
 11
162.747014
 21
112.293081
 31
0.0
  0
LINE
  5
5B
100
AcDbEntity
  8
0
390
0
  6
CONTINUOUS
 62
   110
100
AcDbLine
 10
144.547014
 20
141.893081
 30
0.0
 11
144.547014
 21
112.293081
 31
0.0
  0
LINE
  5
5C
100
AcDbEntity
  8
0
390
0
  6
CONTINUOUS
 62
   110
100
AcDbLine
 10
119.347014
 20
140.293081
 30
0.0
 11
124.347014
 21
140.293081
 31
0.0
  0
LINE
  5
5D
100
AcDbEntity
  8
0
390
0
  6
CONTINUOUS
 62
   110
100
AcDbLine
 10
124.347014
 20
140.293081
 30
0.0
 11
124.347014
 21
112.293081
 31
0.0
  0
LINE
  5
5E
100
AcDbEntity
  8
0
390
0
  6
CONTINUOUS
 62
   110
100
AcDbLine
 10
146.547014
 20
141.893081
 30
0.0
 11
146.547014
 21
112.293081
 31
0.0
  0
LINE
  5
5F
100
AcDbEntity
  8
0
390
0
  6
CONTINUOUS
 62
   110
100
AcDbLine
 10
126.347014
 20
142.293081
 30
0.0
 11
144.147014
 21
142.293081
 31
0.0
  0
LINE
  5
60
100
AcDbEntity
  8
0
390
0
  6
CONTINUOUS
 62
   110
100
AcDbLine
 10
118.947014
 20
139.893081
 30
0.0
 11
119.347014
 21
140.293081
 31
0.0
  0
LINE
  5
61
100
AcDbEntity
  8
0
390
0
  6
CONTINUOUS
 62
   110
100
AcDbLine
 10
144.547014
 20
141.893081
 30
0.0
 11
144.147014
 21
142.293081
 31
0.0
  0
LINE
  5
62
100
AcDbEntity
  8
0
390
0
  6
CONTINUOUS
 62
   110
100
AcDbLine
 10
146.547014
 20
141.893081
 30
0.0
 11
146.947014
 21
142.293081
 31
0.0
  0
LINE
  5
63
100
AcDbEntity
  8
0
390
0
  6
CONTINUOUS
 62
   110
100
AcDbLine
 10
163.147014
 20
141.893081
 30
0.0
 11
162.747014
 21
142.293081
 31
0.0
  0
LINE
  5
64
100
AcDbEntity
  8
0
390
0
  6
CONTINUOUS
 62
   110
100
AcDbLine
 10
164.687014
 20
141.893081
 30
0.0
 11
165.087014
 21
142.293081
 31
0.0
  0
LINE
  5
65
100
AcDbEntity
  8
0
390
0
  6
CONTINUOUS
 62
   110
100
AcDbLine
 10
169.687014
 20
141.893081
 30
0.0
 11
169.287014
 21
142.293081
 31
0.0
  0
LINE
  5
66
100
AcDbEntity
  8
0
390
0
  6
CONTINUOUS
 62
   110
100
AcDbLine
 10
164.687014
 20
82.693081
 30
0.0
 11
165.087014
 21
82.293081
 31
0.0
  0
LINE
  5
67
100
AcDbEntity
  8
0
390
0
  6
CONTINUOUS
 62
   110
100
AcDbLine
 10
169.687014
 20
82.693081
 30
0.0
 11
169.287014
 21
82.293081
 31
0.0
  0
LINE
  5
68
100
AcDbEntity
  8
0
390
0
  6
CONTINUOUS
 62
   110
100
AcDbLine
 10
163.147014
 20
82.693081
 30
0.0
 11
162.747014
 21
82.293081
 31
0.0
  0
LINE
  5
69
100
AcDbEntity
  8
0
390
0
  6
CONTINUOUS
 62
   110
100
AcDbLine
 10
144.547014
 20
82.693081
 30
0.0
 11
144.147014
 21
82.293081
 31
0.0
  0
LINE
  5
6A
100
AcDbEntity
  8
0
390
0
  6
CONTINUOUS
 62
   110
100
AcDbLine
 10
146.547014
 20
82.693081
 30
0.0
 11
146.947014
 21
82.293081
 31
0.0
  0
LINE
  5
6B
100
AcDbEntity
  8
0
390
0
  6
CONTINUOUS
 62
   110
100
AcDbLine
 10
118.947014
 20
84.693081
 30
0.0
 11
119.347014
 21
84.293081
 31
0.0
  0
LINE
  5
6C
100
AcDbEntity
  8
0
390
0
  6
CONTINUOUS
 62
   110
100
AcDbLine
 10
177.687014
 20
87.993081
 30
0.0
 11
177.051928
 21
86.893081
 31
0.0
  0
LINE
  5
6D
100
AcDbEntity
  8
0
390
0
  6
CONTINUOUS
 62
   110
100
AcDbLine
 10
177.051928
 20
86.893081
 30
0.0
 11
177.051928
 21
112.293081
 31
0.0
  0
LINE
  5
6E
100
AcDbEntity
  8
0
390
0
  6
CONTINUOUS
 62
   110
100
AcDbLine
 10
169.687014
 20
87.993081
 30
0.0
 11
171.687014
 21
87.993081
 31
0.0
  0
LINE
  5
6F
100
AcDbEntity
  8
0
390
0
  6
CENTER
 62
   110
100
AcDbLine
 10
114.739014
 20
112.293082
 30
0.0
 11
209.871014
 21
112.293082
 31
0.0
  0
LINE
  5
70
100
AcDbEntity
  8
0
390
0
  6
CONTINUOUS
 62
   110
100
AcDbLine
 10
202.3248
 20
114.707295
 30
0.0
 11
207.153228
 21
109.878868
 31
0.0
  0
LINE
  5
71
100
AcDbEntity
  8
0
390
0
  6
CONTINUOUS
 62
   110
100
AcDbLine
 10
202.3248
 20
109.878868
 30
0.0
 11
207.153228
 21
114.707295
 31
0.0
  0
MTEXT
  5
72
100
AcDbEntity
  8
0
390
0
  6
CONTINUOUS
 62
    20
100
AcDbMText
 10
160.347003
 20
106.346411
 30
0.0
 40
4.0
 41
0.0
 71
     7
 72
     1
  1
\W0.330;\A1;８
 11
0.0
 21
1.0
 31
0.0
 73
     1
 44
1.0
  0
MTEXT
  5
73
100
AcDbEntity
  8
0
390
0
  6
CONTINUOUS
 62
    20
100
AcDbMText
 10
160.347002
 20
98.35961
 30
0.0
 40
4.0
 41
0.0
 71
     7
 72
     1
  1
\W0.190;\A1;１１
 11
0.0
 21
1.0
 31
0.0
 73
     1
 44
1.0
  0
MTEXT
  5
74
100
AcDbEntity
  8
0
390
0
  6
CONTINUOUS
 62
    20
100
AcDbMText
 10
160.347003
 20
90.688023
 30
0.0
 40
4.0
 41
0.0
 71
     7
 72
     1
  1
\T0.996;\W0.904;\A1;１６
 11
0.0
 21
1.0
 31
0.0
 73
     1
 44
1.0
  0
MTEXT
  5
75
100
AcDbEntity
  8
0
390
0
  6
CONTINUOUS
 62
    20
100
AcDbMText
 10
160.34701
 20
110.999807
 30
0.0
 40
4.0
 41
0.0
 71
     7
 72
     1
  1
\W0.330;\A1;５．６
 11
0.0
 21
1.0
 31
0.0
 73
     1
 44
1.0
  0
MTEXT
  5
76
100
AcDbEntity
  8
0
390
0
  6
CONTINUOUS
 62
    20
100
AcDbMText
 10
160.34701
 20
120.946417
 30
0.0
 40
4.0
 41
0.0
 71
     7
 72
     1
  1
\W0.330;\A1;４
 11
0.0
 21
1.0
 31
0.0
 73
     1
 44
1.0
  0
MTEXT
  5
77
100
AcDbEntity
  8
0
390
0
  6
CONTINUOUS
 62
    20
100
AcDbMText
 10
160.34701
 20
127.691609
 30
0.0
 40
4.0
 41
0.0
 71
     7
 72
     1
  1
\T0.996;\W0.904;\A1;２．８
 11
0.0
 21
1.0
 31
0.0
 73
     1
 44
1.0
  0
MTEXT
  5
78
100
AcDbEntity
  8
0
390
0
  6
CONTINUOUS
 62
    20
100
AcDbMText
 10
132.947012
 20
93.679587
 30
0.0
 40
4.6
 41
0.0
 71
     7
 72
     1
  1
\W0.330;\A1;ＬＥＮＳ
 11
0.0
 21
1.0
 31
0.0
 73
     1
 44
1.0
  0
MTEXT
  5
79
100
AcDbEntity
  8
0
390
0
  6
CONTINUOUS
 62
    20
100
AcDbMText
 10
140.147025
 20
96.189261
 30
0.0
 40
4.6
 41
0.0
 71
     7
 72
     1
  1
\W0.330;\A1;ＦＡＲ－
 11
0.0
 21
1.0
 31
0.0
 73
     1
 44
1.0
  0
MTEXT
  5
7A
100
AcDbEntity
  8
0
390
0
  6
CONTINUOUS
 62
    20
100
AcDbMText
 10
132.947012
 20
89.223867
 30
0.0
 40
4.6
 41
0.0
 71
     7
 72
     1
  1
\W0.650;\A1;Ｚ
 11
0.0
 21
1.0
 31
0.0
 73
     1
 44
1.0
  0
MTEXT
  5
7B
100
AcDbEntity
  8
0
390
0
  6
CONTINUOUS
 62
    20
100
AcDbMText
 10
132.947012
 20
87.315236
 30
0.0
 40
4.6
 41
0.0
 71
     7
 72
     1
  1
\W0.550;\A1;Ｔ
 11
0.0
 21
1.0
 31
0.0
 73
     1
 44
1.0
  0
MTEXT
  5
7C
100
AcDbEntity
  8
0
390
0
  6
CONTINUOUS
 62
    20
100
AcDbMText
 10
132.947012
 20
85.691793
 30
0.0
 40
4.6
 41
0.0
 71
     7
 72
     1
  1
\W0.450;\A1;Ｒ
 11
0.0
 21
1.0
 31
0.0
 73
     1
 44
1.0
  0
MTEXT
  5
7D
100
AcDbEntity
  8
0
390
0
  6
CONTINUOUS
 62
    20
100
AcDbMText
 10
132.947012
 20
84.182424
 30
0.0
 40
4.6
 41
0.0
 71
     7
 72
     1
  1
\W0.350;\A1;Ａ
 11
0.0
 21
1.0
 31
0.0
 73
     1
 44
1.0
  0
MTEXT
  5
7E
100
AcDbEntity
  8
0
390
0
  6
CONTINUOUS
 62
    20
100
AcDbMText
 10
132.947012
 20
83.243444
 30
0.0
 40
4.6
 41
0.0
 71
     7
 72
     1
  1
\W0.250;\A1;Ｕ
 11
0.0
 21
1.0
 31
0.0
 73
     1
 44
1.0
  0
MTEXT
  5
7F
100
AcDbEntity
  8
0
390
0
  6
CONTINUOUS
 62
    20
100
AcDbMText
 10
132.947012
 20
82.589315
 30
0.0
 40
4.6
 41
0.0
 71
     7
 72
     1
  1
\W0.150;\A1;Ｑ
 11
0.0
 21
1.0
 31
0.0
 73
     1
 44
1.0
  0
MTEXT
  5
80
100
AcDbEntity
  8
0
390
0
  6
CONTINUOUS
 62
    20
100
AcDbMText
 10
132.947012
 20
111.98641
 30
0.0
 40
4.6
 41
0.0
 71
     7
 72
     1
  1
\W0.330;\A1;２５ｍｍ
 11
0.0
 21
1.0
 31
0.0
 73
     1
 44
1.0
  0
MTEXT
  5
81
100
AcDbEntity
  8
0
390
0
  6
CONTINUOUS
 62
    20
100
AcDbMText
 10
132.947012
 20
132.87393
 30
0.0
 40
4.6
 41
0.0
 71
     7
 72
     1
  1
\W0.452;\A1;F/2.8
 11
0.0
 21
1.0
 31
0.0
 73
     1
 44
1.0
  0
MTEXT
  5
82
100
AcDbEntity
  8
0
390
0
  6
CONTINUOUS
 62
    20
100
AcDbMText
 10
140.147025
 20
112.878149
 30
0.0
 40
4.6
 41
0.0
 71
     7
 72
     1
  1
\W0.330;\A1;ＮＥＡＲ
 11
0.0
 21
1.0
 31
0.0
 73
     1
 44
1.0
  0
LINE
  5
83
100
AcDbEntity
  8
0
390
0
  6
CONTINUOUS
 62
     7
100
AcDbLine
 10
289.0
 20
-10.0
 30
0.0
 11
289.0
 21
-18.0
 31
0.0
  0
LINE
  5
84
100
AcDbEntity
  8
0
390
0
  6
CONTINUOUS
 62
     7
100
AcDbLine
 10
246.0
 20
-10.0
 30
0.0
 11
246.0
 21
-18.0
 31
0.0
  0
LINE
  5
85
100
AcDbEntity
  8
0
390
0
  6
CONTINUOUS
 62
     7
100
AcDbLine
 10
246.0
 20
-18.0
 30
0.0
 11
289.0
 21
-18.0
 31
0.0
  0
LINE
  5
86
100
AcDbEntity
  8
0
390
0
  6
CONTINUOUS
 62
     7
100
AcDbLine
 10
246.0
 20
-10.0
 30
0.0
 11
289.0
 21
-10.0
 31
0.0
  0
MTEXT
  5
87
100
AcDbEntity
  8
0
390
0
  6
CONTINUOUS
 62
     7
100
AcDbMText
 10
255.208326
 20
-14.75
 30
0.0
 40
2.5
 41
0.0
 71
     1
 72
     1
  1
\W0.833;\A1;ＳＥＰ．２５．’０３
 73
     1
 44
1.0
  0
LINE
  5
88
100
AcDbEntity
  8
0
390
0
  6
CONTINUOUS
 62
     7
100
AcDbLine
 10
246.0
 20
-14.0
 30
0.0
 11
289.0
 21
-14.0
 31
0.0
  0
MTEXT
  5
89
100
AcDbEntity
  8
0
390
0
  6
CONTINUOUS
 62
     7
100
AcDbMText
 10
246.79596
 20
-10.717949
 30
0.0
 40
2.564102
 41
0.0
 71
     1
 72
     1
  1
\W0.715;\A1;９１６９９－Ｓ００１－０００Ｃ－Ｂ２２
 73
     1
 44
1.0
  0
LINE
  5
8A
100
AcDbEntity
  8
0
390
0
  6
CONTINUOUS
 62
     7
100
AcDbLine
 10
246.0
 20
-10.0
 30
0.0
 11
246.0
 21
-18.0
 31
0.0
  0
LINE
  5
8B
100
AcDbEntity
  8
0
390
0
  6
CONTINUOUS
 62
     7
100
AcDbLine
 10
216.0
 20
-10.0
 30
0.0
 11
216.0
 21
-18.0
 31
0.0
  0
LINE
  5
8C
100
AcDbEntity
  8
0
390
0
  6
CONTINUOUS
 62
     7
100
AcDbLine
 10
216.0
 20
-18.0
 30
0.0
 11
246.0
 21
-18.0
 31
0.0
  0
LINE
  5
8D
100
AcDbEntity
  8
0
390
0
  6
CONTINUOUS
 62
     7
100
AcDbLine
 10
216.0
 20
-10.0
 30
0.0
 11
246.0
 21
-10.0
 31
0.0
  0
MTEXT
  5
8E
100
AcDbEntity
  8
0
390
0
  6
CONTINUOUS
 62
     7
100
AcDbMText
 10
216.946973
 20
-11.142857
 30
0.0
 40
5.714286
 41
0.0
 71
     1
 72
     1
  1
\W0.464;\A1;ＳＰＥＣ．ＩＮＦＯ
 73
     1
 44
1.0
  0
LINE
  5
8F
100
AcDbEntity
  8
0
390
0
  6
CONTINUOUS
 62
     7
100
AcDbLine
 10
289.0
 20
-18.0
 30
0.0
 11
289.0
 21
-24.0
 31
0.0
  0
LINE
  5
90
100
AcDbEntity
  8
0
390
0
  6
CONTINUOUS
 62
     7
100
AcDbLine
 10
216.0
 20
-18.0
 30
0.0
 11
216.0
 21
-24.0
 31
0.0
  0
LINE
  5
91
100
AcDbEntity
  8
0
390
0
  6
CONTINUOUS
 62
     7
100
AcDbLine
 10
216.0
 20
-24.0
 30
0.0
 11
289.0
 21
-24.0
 31
0.0
  0
LINE
  5
92
100
AcDbEntity
  8
0
390
0
  6
CONTINUOUS
 62
     7
100
AcDbLine
 10
216.0
 20
-18.0
 30
0.0
 11
289.0
 21
-18.0
 31
0.0
  0
HATCH
  5
93
100
AcDbEntity
  8
0
390
0
  6
CONTINUOUS
 62
    20
100
AcDbHatch
 10
0.0
 20
0.0
 30
0.0
210
0.0
220
0.0
230
1.0
  2
ANSI31
 70
     0
 71
     0
 91
        1
 92
        1
 93
       10
 72
     2
 10
147.847015
 20
103.64908200000001
 40
0.3
 50
90.0
 51
270.0
 73
     1
 72
     1
 10
147.847015
 20
103.349082
 11
150.31901300000001
 21
103.349082
 72
     1
 10
150.31901300000001
 20
103.349082
 11
153.05796799999999
 21
93.492759000000007
 72
     2
 10
153.347015
 20
93.573081999999999
 40
0.3
 50
195.529976
 51
270.0
 73
     1
 72
     1
 10
153.347015
 20
93.273082000000002
 11
155.04701499999999
 21
93.273082000000002
 72
     2
 10
155.04701499999999
 20
93.573081999999999
 40
0.3
 50
270.0
 51
450.00005
 73
     1
 72
     1
 10
155.04701499999999
 20
93.873081999999997
 11
153.57501600000001
 21
93.873081999999997
 72
     1
 10
153.57501600000001
 20
93.873081999999997
 11
150.836062
 21
103.729404
 72
     2
 10
150.54701499999999
 20
103.64908200000001
 40
0.3
 50
15.529976
 51
90.0
 73
     1
 72
     1
 10
150.54701499999999
 20
103.949082
 11
147.847015
 21
103.949082
 97
        0
 75
     0
 76
     1
 52
0.0
 41
0.00062
 77
     0
 78
     1
 53
45.0
 43
0.0
 44
0.0
 45
-0.0013919424826507
 46
0.0013919424826507
 79
     0
 98
        1
 10
0.0
 20
0.0
  0
HATCH
  5
94
100
AcDbEntity
  8
0
390
0
  6
CONTINUOUS
 62
    20
100
AcDbHatch
 10
0.0
 20
0.0
 30
0.0
210
0.0
220
0.0
230
1.0
  2
ANSI31
 70
     0
 71
     0
 91
        1
 92
        1
 93
       10
 72
     2
 10
147.847015
 20
106.793082
 40
0.3
 50
90.0
 51
270.00005
 73
     1
 72
     1
 10
147.847015
 20
106.493082
 11
150.35731899999999
 21
106.493082
 72
     1
 10
150.35731899999999
 20
106.493082
 11
153.075987
 21
100.764458
 72
     2
 10
153.347015
 20
100.89308200000001
 40
0.3
 50
205.387906
 51
270.0
 73
     1
 72
     1
 10
153.347015
 20
100.593082
 11
155.04701499999999
 21
100.593082
 72
     2
 10
155.04701499999999
 20
100.89308200000001
 40
0.3
 50
270.0
 51
450.0
 73
     1
 72
     1
 10
155.04701499999999
 20
101.193082
 11
153.536711
 21
101.193082
 72
     1
 10
153.536711
 20
101.193082
 11
150.81804299999999
 21
106.921705
 72
     2
 10
150.54701499999999
 20
106.793082
 40
0.3
 50
25.387906
 51
90.0
 73
     1
 72
     1
 10
150.54701499999999
 20
107.093082
 11
147.847015
 21
107.093082
 97
        0
 75
     0
 76
     1
 52
0.0
 41
0.00062
 77
     0
 78
     1
 53
45.0
 43
0.0
 44
0.0
 45
-0.0013919424826507
 46
0.0013919424826507
 79
     0
 98
        1
 10
0.0
 20
0.0
  0
HATCH
  5
95
100
AcDbEntity
  8
0
390
0
  6
CONTINUOUS
 62
    20
100
AcDbHatch
 10
0.0
 20
0.0
 30
0.0
210
0.0
220
0.0
230
1.0
  2
ANSI31
 70
     0
 71
     0
 91
        1
 92
        1
 93
       10
 72
     2
 10
147.847015
 20
110.293082
 40
0.3
 50
90.0
 51
270.0
 73
     1
 72
     1
 10
147.847015
 20
109.993082
 11
150.447779
 21
109.993082
 72
     1
 10
150.447779
 20
109.993082
 11
153.16811799999999
 21
107.97225899999999
 72
     2
 10
153.347015
 20
108.213082
 40
0.3
 50
233.392925
 51
270.0
 73
     1
 72
     1
 10
153.347015
 20
107.913082
 11
155.04701499999999
 21
107.913082
 72
     2
 10
155.04701499999999
 20
108.213082
 40
0.3
 50
270.0
 51
450.00005
 73
     1
 72
     1
 10
155.04701499999999
 20
108.513082
 11
153.44625099999999
 21
108.513082
 72
     1
 10
153.44625099999999
 20
108.513082
 11
150.72591199999999
 21
110.533905
 72
     2
 10
150.54701499999999
 20
110.293082
 40
0.3
 50
53.392925
 51
90.0
 73
     1
 72
     1
 10
150.54701499999999
 20
110.593082
 11
147.847015
 21
110.593082
 97
        0
 75
     0
 76
     1
 52
0.0
 41
0.00062
 77
     0
 78
     1
 53
45.0
 43
0.0
 44
0.0
 45
-0.0013919424826507
 46
0.0013919424826507
 79
     0
 98
        1
 10
0.0
 20
0.0
  0
HATCH
  5
96
100
AcDbEntity
  8
0
390
0
  6
CONTINUOUS
 62
    20
100
AcDbHatch
 10
0.0
 20
0.0
 30
0.0
210
0.0
220
0.0
230
1.0
  2
ANSI31
 70
     0
 71
     0
 91
        1
 92
        1
 93
        4
 72
     2
 10
140.94701499999999
 20
110.293082
 40
0.4
 50
90.0
 51
270.000031
 73
     1
 72
     1
 10
140.94701499999999
 20
109.89308200000001
 11
144.54701499999999
 21
109.89308200000001
 72
     1
 10
144.54701499999999
 20
109.89308200000001
 11
144.54701499999999
 21
110.693082
 72
     1
 10
144.54701499999999
 20
110.693082
 11
140.94701499999999
 21
110.693082
 97
        0
 75
     0
 76
     1
 52
0.0
 41
0.00062
 77
     0
 78
     1
 53
45.0
 43
0.0
 44
0.0
 45
-0.0013919424826507
 46
0.0013919424826507
 79
     0
 98
        1
 10
0.0
 20
0.0
  0
HATCH
  5
97
100
AcDbEntity
  8
0
390
0
  6
CONTINUOUS
 62
    20
100
AcDbHatch
 10
0.0
 20
0.0
 30
0.0
210
0.0
220
0.0
230
1.0
  2
ANSI31
 70
     0
 71
     0
 91
        1
 92
        1
 93
        4
 72
     2
 10
147.847015
 20
115.53308199999999
 40
0.3
 50
90.0
 51
270.0
 73
     1
 72
     1
 10
147.847015
 20
115.233082
 11
155.04701499999999
 21
115.233082
 72
     2
 10
155.04701499999999
 20
115.53308199999999
 40
0.3
 50
270.0
 51
450.0
 73
     1
 72
     1
 10
155.04701499999999
 20
115.833082
 11
147.847015
 21
115.833082
 97
        0
 75
     0
 76
     1
 52
0.0
 41
0.00062
 77
     0
 78
     1
 53
45.0
 43
0.0
 44
0.0
 45
-0.0013919424826507
 46
0.0013919424826507
 79
     0
 98
        1
 10
0.0
 20
0.0
  0
HATCH
  5
98
100
AcDbEntity
  8
0
390
0
  6
CONTINUOUS
 62
    20
100
AcDbHatch
 10
0.0
 20
0.0
 30
0.0
210
0.0
220
0.0
230
1.0
  2
ANSI31
 70
     0
 71
     0
 91
        1
 92
        1
 93
        4
 72
     2
 10
147.847015
 20
122.81308199999999
 40
0.3
 50
90.0
 51
270.0
 73
     1
 72
     1
 10
147.847015
 20
122.513082
 11
155.04701499999999
 21
122.513082
 72
     2
 10
155.04701499999999
 20
122.81308199999999
 40
0.3
 50
270.0
 51
450.0
 73
     1
 72
     1
 10
155.04701499999999
 20
123.11308200000001
 11
147.847015
 21
123.11308200000001
 97
        0
 75
     0
 76
     1
 52
0.0
 41
0.00062
 77
     0
 78
     1
 53
45.0
 43
0.0
 44
0.0
 45
-0.0013919424826507
 46
0.0013919424826507
 79
     0
 98
        1
 10
0.0
 20
0.0
  0
HATCH
  5
99
100
AcDbEntity
  8
0
390
0
  6
CONTINUOUS
 62
    20
100
AcDbHatch
 10
0.0
 20
0.0
 30
0.0
210
0.0
220
0.0
230
1.0
  2
ANSI31
 70
     0
 71
     0
 91
        1
 92
        1
 93
        4
 72
     2
 10
147.847014
 20
131.77653799999999
 40
0.3
 50
90.0
 51
270.0
 73
     1
 72
     1
 10
147.847014
 20
131.47653800000001
 11
155.04701399999999
 21
131.47653800000001
 72
     2
 10
155.04701399999999
 20
131.77653799999999
 40
0.3
 50
270.0
 51
450.0
 73
     1
 72
     1
 10
155.04701399999999
 20
132.076538
 11
147.847014
 21
132.076538
 97
        0
 75
     0
 76
     1
 52
0.0
 41
0.00062
 77
     0
 78
     1
 53
45.0
 43
0.0
 44
0.0
 45
-0.0013919424826507
 46
0.0013919424826507
 79
     0
 98
        1
 10
0.0
 20
0.0
  0
DIMENSION
  5
AC
100
AcDbEntity
  8
0
390
0
  6
CONTINUOUS
 62
   140
100
AcDbDimension
  2
*D1
 10
102.431129
 20
137.793082
 30
0.0
 11
102.431129
 21
115.98832
 31
0.0
 70
   128
 71
     5
 72
     1
 41
1.0
 42
51.0
  1
\A1;\U+2205２５．５、Ｐ＝０．５<>
  3
MXDIMSTYLE
100
AcDbAlignedDimension
 13
116.947014
 23
86.793082
 33
0.0
 14
116.947014
 24
137.793082
 34
0.0
 50
90.0
100
AcDbRotatedDimension
1001
ACAD
1000
DSTYLE
1002
{
1070
     6
1000
_OPEN
1070
     7
1000
_OPEN
1070
    41
1040
3.0
1070
    44
1040
1.0
1070
   284
1070
     8
1070
   343
1005
9F
1070
   344
1005
9F
1002
}
  0
MTEXT
  5
AD
100
AcDbEntity
  8
0
390
0
  6
CONTINUOUS
 62
   140
100
AcDbMText
 10
177.231653
 20
170.54903
 30
0.0
 40
3.2
 41
0.0
 71
     1
 72
     1
  1
\W0.641;\A1;Ｉｒｉｓ　Ｒｉｎｇ
 73
     1
 44
1.0
  0
LEADER
  5
AE
100
AcDbEntity
  8
0
390
0
  6
CONTINUOUS
 62
   140
100
AcDbLeader
  3
MXDIMSTYLE
 73
     3
 74
     0
 75
     0
 40
0.0
 76
     3
 10
158.707001
 20
142.293076
 30
0.0
 10
173.726654
 20
166.34903
 30
0.0
 10
202.46666
 20
166.34903
 30
0.0
 77
   140
1001
ACAD
1000
DSTYLE
1002
{
1070
     6
1000
_OPEN
1070
     7
1000
_OPEN
1070
    41
1040
3.0
1070
   341
1005
9F
1070
   343
1005
9F
1070
   344
1005
9F
1002
}
  0
DIMENSION
  5
BB
100
AcDbEntity
  8
0
390
0
  6
CONTINUOUS
 62
   140
100
AcDbDimension
  2
*D3
 10
169.687014
 20
61.929386
 30
0.0
 11
189.399669
 21
61.929386
 31
0.0
 70
   128
 71
     5
 72
     1
 41
1.0
 42
35.052
  1
\A1;１７．５２６<>
  3
MXDIMSTYLE
100
AcDbAlignedDimension
 13
204.739014
 23
112.293082
 33
0.0
 14
169.687014
 24
82.693082
 34
0.0
100
AcDbRotatedDimension
1001
ACAD
1000
DSTYLE
1002
{
1070
     6
1000
_OPEN
1070
     7
1000
_OPEN
1070
    41
1040
3.0
1070
    44
1040
1.0
1070
   284
1070
     8
1070
   343
1005
9F
1070
   344
1005
9F
1002
}
  0
DIMENSION
  5
C9
100
AcDbEntity
  8
0
390
0
  6
CONTINUOUS
 62
   140
100
AcDbDimension
  2
*D4
 10
197.51535
 20
86.893082
 30
0.0
 11
197.51535
 21
124.379401
 31
0.0
 70
   128
 71
     5
 72
     1
 41
1.0
 42
50.800003
  1
\A1;１－３２ＵＮ－２Ａ<>
  3
MXDIMSTYLE
100
AcDbAlignedDimension
 13
177.051926
 23
137.693085
 33
0.0
 14
177.051926
 24
86.893082
 34
0.0
 50
90.0
100
AcDbRotatedDimension
1001
ACAD
1000
DSTYLE
1002
{
1070
     6
1000
_OPEN
1070
     7
1000
_OPEN
1070
    41
1040
3.0
1070
    44
1040
1.0
1070
   284
1070
     8
1070
   340
1005
C3
1070
   343
1005
9F
1070
   344
1005
9F
1002
}
  0
DIMENSION
  5
D6
100
AcDbEntity
  8
0
390
0
  6
CONTINUOUS
 62
   140
100
AcDbDimension
  2
*D5
 10
177.687014
 20
155.770676
 30
0.0
 11
159.562019
 21
155.770676
 31
0.0
 70
   128
 71
     5
 72
     1
 41
1.0
 42
58.74
  1
\A1;Ａｖｅｎｔｕｒｉｎｅ　Ｂｌａｃｋ<>
  3
MXDIMSTYLE
100
AcDbAlignedDimension
 13
118.947014
 23
139.893082
 33
0.0
 14
177.687014
 24
136.593082
 34
0.0
100
AcDbRotatedDimension
1001
ACAD
1000
DSTYLE
1002
{
1070
     6
1000
_OPEN
1070
     7
1000
_OPEN
1070
    41
1040
3.0
1070
    44
1040
1.0
1070
   284
1070
     8
1070
   343
1005
9F
1070
   344
1005
9F
1002
}
  0
MTEXT
  5
D7
100
AcDbEntity
  8
0
390
0
  6
CONTINUOUS
 62
   140
100
AcDbMText
 10
122.42988
 20
170.549045
 30
0.0
 40
3.2
 41
0.0
 71
     1
 72
     1
  1
\W0.641;\A1;Ｆｏｃｕｓ　Ｒｉｎｇ
 73
     1
 44
1.0
  0
LEADER
  5
D8
100
AcDbEntity
  8
0
390
0
  6
CONTINUOUS
 62
   140
100
AcDbLeader
  3
MXDIMSTYLE
 73
     3
 74
     0
 75
     0
 40
0.0
 76
     3
 10
131.038803
 20
142.293076
 30
0.0
 10
118.924873
 20
166.349045
 30
0.0
 10
150.124878
 20
166.349045
 30
0.0
 77
   140
1001
ACAD
1000
DSTYLE
1002
{
1070
     6
1000
_OPEN
1070
     7
1000
_OPEN
1070
    41
1040
3.0
1070
   341
1005
9F
1070
   343
1005
9F
1070
   344
1005
9F
1002
}
  0
DIMENSION
  5
E5
100
AcDbEntity
  8
0
390
0
  6
CONTINUOUS
 62
   140
100
AcDbDimension
  2
*D6
 10
86.431129
 20
142.293082
 30
0.0
 11
86.431129
 21
113.428315
 31
0.0
 70
   128
 71
     5
 72
     1
 41
1.0
 42
60.0
  1
\A1;\U+2205３０<>
  3
MXDIMSTYLE
100
AcDbAlignedDimension
 13
126.347014
 23
82.293082
 33
0.0
 14
126.347014
 24
142.293082
 34
0.0
 50
90.0
100
AcDbRotatedDimension
1001
ACAD
1000
DSTYLE
1002
{
1070
     6
1000
_OPEN
1070
     7
1000
_OPEN
1070
    41
1040
3.0
1070
    44
1040
1.0
1070
   284
1070
     8
1070
   343
1005
9F
1070
   344
1005
9F
1002
}
  0
DIMENSION
  5
F2
100
AcDbEntity
  8
0
390
0
  6
CONTINUOUS
 62
   140
100
AcDbDimension
  2
*D7
 10
94.431129
 20
140.293082
 30
0.0
 11
94.431129
 21
113.428315
 31
0.0
 70
   128
 71
     5
 72
     1
 41
1.0
 42
56.0
  1
\A1;\U+2205２８<>
  3
MXDIMSTYLE
100
AcDbAlignedDimension
 13
119.347014
 23
84.293082
 33
0.0
 14
119.347014
 24
140.293082
 34
0.0
 50
90.0
100
AcDbRotatedDimension
1001
ACAD
1000
DSTYLE
1002
{
1070
     6
1000
_OPEN
1070
     7
1000
_OPEN
1070
    41
1040
3.0
1070
    44
1040
1.0
1070
   284
1070
     8
1070
   343
1005
9F
1070
   344
1005
9F
1002
}
  0
DIMENSION
  5
FF
100
AcDbEntity
  8
0
390
0
  6
CONTINUOUS
 62
   140
100
AcDbDimension
  2
*D8
 10
169.687014
 20
69.929382
 30
0.0
 11
174.273668
 21
69.929382
 31
0.0
 70
   128
 71
     5
 72
     1
 41
1.0
 42
8.0
  1
\A1;４<>
  3
MXDIMSTYLE
100
AcDbAlignedDimension
 13
177.687014
 23
87.993082
 33
0.0
 14
169.687014
 24
82.693082
 34
0.0
100
AcDbRotatedDimension
1001
ACAD
1000
DSTYLE
1002
{
1070
     6
1000
_OPEN
1070
     7
1000
_OPEN
1070
    41
1040
3.0
1070
    44
1040
1.0
1070
   284
1070
     8
1070
   343
1005
9F
1070
   344
1005
9F
1002
}
  0
DIMENSION
  5
10D
100
AcDbEntity
  8
0
390
0
  6
CONTINUOUS
 62
   140
100
AcDbDimension
  2
*D9
 10
118.947014
 20
61.929386
 30
0.0
 11
147.78368
 21
61.929386
 31
0.0
 70
   128
 71
     5
 72
     1
 41
1.0
 42
50.74
  1
\A1;２５．３７（∞）\X２９．４２（ＭＯＤ）<>
  3
MXDIMSTYLE
100
AcDbAlignedDimension
 13
169.687014
 23
82.693082
 33
0.0
 14
118.947014
 24
84.693082
 34
0.0
100
AcDbRotatedDimension
1001
ACAD
1000
DSTYLE
1002
{
1070
     6
1000
_OPEN
1070
     7
1000
_OPEN
1070
    41
1040
3.0
1070
    44
1040
1.0
1070
   284
1070
     8
1070
   343
1005
9F
1070
   344
1005
9F
1002
}
  0
MTEXT
  5
10E
100
AcDbEntity
  8
0
390
0
  6
CONTINUOUS
 62
   110
100
AcDbMText
 10
250.818186
 20
22.78205
 30
0.0
 40
2.564102
 41
0.0
 71
     1
 72
     1
  1
\W0.745;\A1;FL-BC2528-VGUV
 73
     1
 44
1.0
  0
POINT
  5
10F
100
AcDbEntity
  8
0
390
0
  6
CONTINUOUS
 62
    51
100
AcDbPoint
 10
264.500005
 20
13.499999
 30
0.0
  0
POINT
  5
110
100
AcDbEntity
  8
0
390
0
  6
CONTINUOUS
 62
    51
100
AcDbPoint
 10
264.500005
 20
17.499999
 30
0.0
  0
LINE
  5
111
100
AcDbEntity
  8
0
390
0
  6
CONTINUOUS
 62
   110
100
AcDbLine
 10
286.000005
 20
19.499999
 30
0.0
 11
286.000005
 21
11.499999
 31
0.0
  0
LINE
  5
112
100
AcDbEntity
  8
0
390
0
  6
CONTINUOUS
 62
   110
100
AcDbLine
 10
243.000005
 20
19.499999
 30
0.0
 11
243.000005
 21
11.499999
 31
0.0
  0
LINE
  5
113
100
AcDbEntity
  8
0
390
0
  6
CONTINUOUS
 62
   110
100
AcDbLine
 10
243.000005
 20
11.499999
 30
0.0
 11
286.000005
 21
11.499999
 31
0.0
  0
LINE
  5
114
100
AcDbEntity
  8
0
390
0
  6
CONTINUOUS
 62
   110
100
AcDbLine
 10
243.000005
 20
19.499999
 30
0.0
 11
286.000005
 21
19.499999
 31
0.0
  0
LINE
  5
115
100
AcDbEntity
  8
0
390
0
  6
CONTINUOUS
 62
   110
100
AcDbLine
 10
286.000005
 20
11.499999
 30
0.0
 11
286.000005
 21
15.499999
 31
0.0
  0
LINE
  5
116
100
AcDbEntity
  8
0
390
0
  6
CONTINUOUS
 62
   110
100
AcDbLine
 10
243.000005
 20
11.499999
 30
0.0
 11
286.000005
 21
11.499999
 31
0.0
  0
LINE
  5
117
100
AcDbEntity
  8
0
390
0
  6
CONTINUOUS
 62
   110
100
AcDbLine
 10
286.000005
 20
15.499999
 30
0.0
 11
286.000005
 21
19.499999
 31
0.0
  0
LINE
  5
118
100
AcDbEntity
  8
0
390
0
  6
CONTINUOUS
 62
   110
100
AcDbLine
 10
243.000005
 20
15.499999
 30
0.0
 11
286.000005
 21
15.499999
 31
0.0
  0
LINE
  5
119
100
AcDbEntity
  8
0
390
0
  6
CONTINUOUS
 62
   110
100
AcDbLine
 10
243.000005
 20
19.499999
 30
0.0
 11
243.000005
 21
11.499999
 31
0.0
  0
LINE
  5
11A
100
AcDbEntity
  8
0
390
0
  6
CONTINUOUS
 62
   110
100
AcDbLine
 10
213.000005
 20
19.499999
 30
0.0
 11
213.000005
 21
11.499999
 31
0.0
  0
LINE
  5
11B
100
AcDbEntity
  8
0
390
0
  6
CONTINUOUS
 62
   110
100
AcDbLine
 10
213.000005
 20
11.499999
 30
0.0
 11
243.000005
 21
11.499999
 31
0.0
  0
LINE
  5
11C
100
AcDbEntity
  8
0
390
0
  6
CONTINUOUS
 62
   110
100
AcDbLine
 10
213.000005
 20
19.499999
 30
0.0
 11
243.000005
 21
19.499999
 31
0.0
  0
LINE
  5
11D
100
AcDbEntity
  8
0
390
0
  6
CONTINUOUS
 62
   110
100
AcDbLine
 10
243.000005
 20
11.499999
 30
0.0
 11
243.000005
 21
19.499999
 31
0.0
  0
LINE
  5
11E
100
AcDbEntity
  8
0
390
0
  6
CONTINUOUS
 62
   110
100
AcDbLine
 10
213.000005
 20
11.499999
 30
0.0
 11
243.000005
 21
11.499999
 31
0.0
  0
MTEXT
  5
11F
100
AcDbEntity
  8
0
390
0
  6
CONTINUOUS
 62
   110
100
AcDbMText
 10
213.946978
 20
18.357142
 30
0.0
 40
5.714286
 41
0.0
 71
     1
 72
     1
  1
\W0.464;\A1;ＳＰＥＣ．ＩＮＦＯ
 73
     1
 44
1.0
  0
LINE
  5
120
100
AcDbEntity
  8
0
390
0
  6
CONTINUOUS
 62
   110
100
AcDbLine
 10
286.000005
 20
11.499999
 30
0.0
 11
286.000005
 21
5.499999
 31
0.0
  0
LINE
  5
121
100
AcDbEntity
  8
0
390
0
  6
CONTINUOUS
 62
   110
100
AcDbLine
 10
213.000005
 20
11.499999
 30
0.0
 11
213.000005
 21
5.499999
 31
0.0
  0
LINE
  5
122
100
AcDbEntity
  8
0
390
0
  6
CONTINUOUS
 62
   110
100
AcDbLine
 10
213.000005
 20
5.499999
 30
0.0
 11
286.000005
 21
5.499999
 31
0.0
  0
LINE
  5
123
100
AcDbEntity
  8
0
390
0
  6
CONTINUOUS
 62
   110
100
AcDbLine
 10
213.000005
 20
11.499999
 30
0.0
 11
286.000005
 21
11.499999
 31
0.0
  0
LINE
  5
124
100
AcDbEntity
  8
0
390
0
  6
CONTINUOUS
 62
   110
100
AcDbLine
 10
286.000005
 20
5.499999
 30
0.0
 11
286.000005
 21
11.499999
 31
0.0
  0
LINE
  5
125
100
AcDbEntity
  8
0
390
0
  6
CONTINUOUS
 62
   110
100
AcDbLine
 10
213.000005
 20
5.499999
 30
0.0
 11
286.000005
 21
5.499999
 31
0.0
  0
MTEXT
  5
126
100
AcDbEntity
  8
0
390
0
  6
CONTINUOUS
 62
   110
100
AcDbMText
 10
214.309529
 20
10.499999
 30
0.0
 40
4.0
 41
0.0
 71
     1
 72
     1
  1
\W0.964;\A1;RICOH
 73
     1
 44
1.0
  0
MTEXT
  5
127
100
AcDbEntity
  8
0
390
0
  6
CONTINUOUS
 62
   110
100
AcDbMText
 10
251.25927
 20
14.749999
 30
0.0
 40
2.5
 41
0.0
 71
     1
 72
     1
  1
\W1.222;\A1;Oct.09.2012
 73
     1
 44
1.0
  0
MTEXT
  5
128
100
AcDbEntity
  8
0
390
0
  6
CONTINUOUS
 62
   110
100
AcDbMText
 10
245.858495
 20
18.78205
 30
0.0
 40
2.564102
 41
0.0
 71
     1
 72
     1
  1
\W0.839;\A1;3191699-S001-RC-B22
 73
     1
 44
1.0
  0
LINE
  5
129
100
AcDbEntity
  8
0
390
0
  6
CONTINUOUS
 62
   110
100
AcDbLine
 10
4.000015
 20
-4.5
 30
0.0
 11
4.00002
 21
205.5
 31
0.0
  0
LINE
  5
12A
100
AcDbEntity
  8
0
390
0
  6
CONTINUOUS
 62
   110
100
AcDbLine
 10
301.000005
 20
-4.500001
 30
0.0
 11
4.000015
 21
-4.5
 31
0.0
  0
LINE
  5
12B
100
AcDbEntity
  8
0
390
0
  6
CONTINUOUS
 62
   110
100
AcDbLine
 10
301.000005
 20
205.500002
 30
0.0
 11
301.000005
 21
-4.500001
 31
0.0
  0
LINE
  5
12C
100
AcDbEntity
  8
0
390
0
  6
CONTINUOUS
 62
   110
100
AcDbLine
 10
4.00002
 20
205.499999
 30
0.0
 11
301.000005
 21
205.500002
 31
0.0
  0
ENDSEC
  0
SECTION
  2
OBJECTS
  0
DICTIONARY
  5
19
100
AcDbDictionary
280
     0
281
     1
  3
ACAD_GROUP
350
1A
  3
ACAD_MLINESTYLE
350
1B
  3
ACAD_LAYOUT
350
1E
  3
ACAD_PLOTSETTINGS
350
22
  3
ACAD_PLOTSTYLENAME
350
1F
  0
DICTIONARY
  5
1A
102
{ACAD_REACTORS
330
19
102
}
100
AcDbDictionary
280
     0
281
     1
  0
DICTIONARY
  5
1B
102
{ACAD_REACTORS
330
19
102
}
100
AcDbDictionary
280
     0
281
     1
  3
Standard
350
1C
  0
MLINESTYLE
  5
1C
102
{ACAD_REACTORS
330
1B
102
}
100
AcDbMlineStyle
  2
Standard
 70
     0
  3

 62
     0
 51
90.0
 52
90.0
 71
     2
 49
0.5
 62
   256
  6
ByLayer
 49
-0.5
 62
   256
  6
ByLayer
  0
ACDBDICTIONARYWDFLT
  5
1F
102
{ACAD_REACTORS
330
19
102
}
100
AcDbDictionary
281
     1
  3
Normal
350
1D
100
AcDbDictionaryWithDefault
340
1D
  0
ACDBPLACEHOLDER
  5
1D
102
{ACAD_REACTORS
330
1F
102
}
  0
LAYOUT
  5
20
102
{ACAD_REACTORS
330
1E
102
}
100
AcDbPlotSettings
  1

  2

  4

  6

 40
0.0
 41
0.0
 42
0.0
 43
0.0
 44
0.0
 45
0.0
 46
0.0
 47
0.0
 48
0.0
 49
0.0
140
0.0
141
0.0
142
1.0
143
1.0
 70
  1024
 72
     0
 73
     0
 74
     0
  7

 75
     0
147
1.0
148
0.0
149
0.0
100
AcDbLayout
  1
Model
 70
     0
 71
     0
 10
0.0
 20
0.0
 11
0.0
 21
0.0
 12
0.0
 22
0.0
 32
0.0
 14
0.0
 24
0.0
 34
0.0
 15
0.0
 25
0.0
 35
0.0
146
0.0
 13
0.0
 23
0.0
 33
0.0
 16
0.0
 26
0.0
 36
0.0
 17
0.0
 27
0.0
 37
0.0
 76
     0
330
A
331
0
345
0
346
0
  0
LAYOUT
  5
21
102
{ACAD_REACTORS
330
1E
102
}
100
AcDbPlotSettings
  1

  2

  4

  6

 40
0.0
 41
0.0
 42
0.0
 43
0.0
 44
0.0
 45
0.0
 46
0.0
 47
0.0
 48
0.0
 49
0.0
140
0.0
141
0.0
142
1.0
143
1.0
 70
     0
 72
     0
 73
     0
 74
     0
  7

 75
     0
147
1.0
148
0.0
149
0.0
100
AcDbLayout
  1
Layout1
 70
     0
 71
     0
 10
0.0
 20
0.0
 11
0.0
 21
0.0
 12
0.0
 22
0.0
 32
0.0
 14
0.0
 24
0.0
 34
0.0
 15
0.0
 25
0.0
 35
0.0
146
0.0
 13
0.0
 23
0.0
 33
0.0
 16
0.0
 26
0.0
 36
0.0
 17
0.0
 27
0.0
 37
0.0
 76
     0
330
B
331
0
345
0
346
0
  0
DICTIONARY
  5
1E
102
{ACAD_REACTORS
330
19
102
}
100
AcDbDictionary
280
     0
281
     1
  3
Layout1
350
21
  3
Model
350
20
  0
DICTIONARY
  5
22
102
{ACAD_REACTORS
330
19
102
}
100
AcDbDictionary
280
     0
281
     1
  0
ENDSEC
  0
EOF
